<svg xmlns="http://www.w3.org/2000/svg">
<defs>
<font id="DBHelvethaicaMonX-75Bd" horiz-adv-x="0" >
  <font-face 
    font-family="DB HelvethaicaMon X 75 Bd"
    font-weight="700"
    font-stretch="normal"
    units-per-em="4096"
    panose-1="2 0 5 6 9 0 0 2 0 4"
    ascent="3276"
    descent="-820"
    x-height="1453"
    cap-height="2019"
    bbox="-2146 -1468 3722 3401"
    underline-thickness="82"
    underline-position="-627"
    unicode-range="U+0020-F882"
  />
<missing-glyph horiz-adv-x="1151" 
d="M1176 1114v-41h16q20 0 20 29q-1 3 -4 6q-6 6 -16 6h-16zM1184 1069h-8v-37h-13v94h29q15 0 24 -6t9 -18q0 -25 -8.5 -29t-20.5 -4l29 -37h-13zM1192 1020q17 0 28.5 5.5t19 13.5t10.5 17t3 17q0 34 -16.5 50t-44.5 16t-47 -16t-19 -50q0 -22 14.5 -37.5t51.5 -15.5z
M1192 1147q34 0 52 -20t18 -54q0 -22 -18 -41.5t-52 -19.5q-37 0 -55.5 19.5t-18.5 41.5q0 34 18.5 54t55.5 20zM561 881q27 -3 63.5 -7.5t76.5 -10.5t81.5 -13.5t78.5 -16.5t65.5 -19.5t44.5 -22.5q-29 54 -75 96.5t-101.5 72t-116.5 45t-121 15.5q-48 0 -94.5 -9
t-89 -27.5t-78.5 -46.5t-62 -65q50 4 101 6.5t100 2.5h127zM1049 1102v-397q-140 40 -311.5 69t-360.5 29q-133 0 -262 -12q12 61 48.5 117.5t93.5 99.5t132 68.5t164 25.5q86 0 155 -19.5t121.5 -48.5t88 -62t53.5 -59v189h78zM426 352q0 25 -15 35t-30 10q-25 0 -37 -10
t-12 -35q0 -41 49 -41q15 0 30 10t15 31zM90 389q0 63 25.5 112.5t67 83.5t94.5 52t108 18q57 0 108.5 -15.5t90 -47.5t61.5 -80.5t23 -114.5v-323h303v565h78v-635h-533v70h82v332q0 44 -16.5 76.5t-45 53.5t-66.5 31.5t-81 10.5t-83 -12t-70.5 -35.5t-49 -57t-18.5 -76.5
v-295l164 164q-6 1 -16.5 7.5t-20.5 17t-17.5 26t-7.5 35.5q0 53 31 82t84 29q23 0 43 -8.5t35 -23.5t24 -35.5t9 -43.5q0 -18 -5.5 -33.5t-13 -26.5t-16.5 -18t-15 -8q-2 -6 -14.5 -18.5t-31.5 -30.5t-42.5 -41t-46.5 -49q-31 -28 -64 -58.5t-67 -64.5h-90v385z" />
    <glyph glyph-name="plusminus" unicode="&#x2b;&#x2d;" horiz-adv-x="1667" 
d="M671 1721q0 42 11.5 77t32.5 60.5t51 39.5t68 14t68 -14t51 -39.5t32.5 -60.5t11.5 -77v-421h416q87 0 139 -42t52 -116t-52 -116t-139 -42h-416v-422q0 -42 -11.5 -76.5t-32.5 -60t-51 -39.5t-68 -14t-68 14t-51 39.5t-32.5 60t-11.5 76.5v422h-416q-43 0 -78.5 13
t-60.5 35t-38.5 50.5t-13.5 59.5q0 74 52 116t139 42h416v421zM1419 320q38 0 71.5 -8.5t59 -27t40 -49t14.5 -74.5q0 -45 -14.5 -75.5t-40 -49.5t-59 -27.5t-71.5 -8.5h-1172q-39 0 -72.5 8.5t-58.5 27.5t-39.5 49.5t-14.5 75.5q0 44 14.5 74.5t39.5 49t58.5 27t72.5 8.5
h1172z" />
    <glyph glyph-name="ellipsis" unicode="&#x2e;&#x2e;&#x2e;" horiz-adv-x="2777" 
d="M250 216q0 47 17.5 88t48.5 72t72 48.5t88 17.5t88 -17.5t72 -48.5t48.5 -72t17.5 -88t-17.5 -88t-48.5 -72t-72 -48.5t-88 -17.5t-88 17.5t-72 48.5t-48.5 72t-17.5 88zM1157 216q0 47 17.5 88t48.5 72t72 48.5t88 17.5t88 -17.5t72 -48.5t48.5 -72t17.5 -88t-17.5 -88
t-48.5 -72t-72 -48.5t-88 -17.5t-88 17.5t-72 48.5t-48.5 72t-17.5 88zM2071 216q0 47 17.5 88t48.5 72t72 48.5t88 17.5t88 -17.5t72 -48.5t48.5 -72t17.5 -88t-17.5 -88t-48.5 -72t-72 -48.5t-88 -17.5t-88 17.5t-72 48.5t-48.5 72t-17.5 88z" />
    <glyph glyph-name="lessequal" unicode="&#x3c;&#x3d;" horiz-adv-x="1794" 
d="M627 1182l864 -377q43 -18 73.5 -43.5t47 -55t18 -63t-14.5 -67.5q-20 -44 -49 -67t-65.5 -28.5t-79 4.5t-90.5 33l-1107 509q-43 20 -71.5 62t-28.5 93t28.5 93t71.5 62l1107 508q45 21 89.5 33t84 7.5t70.5 -29t48 -76.5q23 -69 -5.5 -123.5t-114.5 -91.5zM1443 320
q38 0 71.5 -8.5t59 -27t40 -49t14.5 -74.5q0 -45 -14.5 -75.5t-40 -49.5t-59 -27.5t-71.5 -8.5h-1136q-39 0 -72.5 8.5t-58.5 27.5t-39.5 49.5t-14.5 75.5q0 44 14.5 74.5t39.5 49t58.5 27t72.5 8.5h1136z" />
    <glyph glyph-name="greaterequal" unicode="&#x3e;&#x3d;" horiz-adv-x="1794" 
d="M1487 320q39 0 72.5 -8.5t58.5 -27t39.5 -49t14.5 -74.5q0 -45 -14.5 -75.5t-39.5 -49.5t-58.5 -27.5t-72.5 -8.5h-1136q-38 0 -71.5 8.5t-59 27.5t-40 49.5t-14.5 75.5q0 44 14.5 74.5t40 49t59 27t71.5 8.5h1136zM290 1565q-86 37 -114.5 91.5t-5.5 123.5
q17 52 48 76.5t70.5 29t84 -7.5t89.5 -33l1107 -508q43 -20 71.5 -62t28.5 -93t-28.5 -93t-71.5 -62l-1107 -509q-48 -23 -90.5 -33t-79 -4.5t-65.5 28.5t-49 67q-16 34 -14.5 67.5t18 63t47 55t73.5 43.5l864 377z" />
    <glyph glyph-name="fongmanfunnuthai" unicode="&#xe4f;&#x22;" horiz-adv-x="2028" 
d="M131 836q0 122 31.5 234.5t89.5 210t139 178t180 137.5t212.5 88.5t236.5 31.5q121 0 232.5 -31.5t209 -88.5t177.5 -137.5t137 -178t88.5 -210t31.5 -234.5t-31.5 -234.5t-88.5 -210.5t-137 -178.5t-177.5 -137.5t-209 -88.5t-232.5 -31.5q-123 0 -236.5 31.5
t-212.5 88.5t-180 137.5t-139 178.5t-89.5 210.5t-31.5 234.5zM549 844q0 94 37.5 178t101.5 147.5t149.5 100.5t182.5 37q94 0 177.5 -37t146 -100.5t99 -147.5t36.5 -178q0 -97 -36.5 -182t-99 -148.5t-146 -100t-177.5 -36.5q-97 0 -182.5 36.5t-149.5 100t-101.5 148.5
t-37.5 182zM410 844q0 -83 21.5 -160.5t61 -145.5t95 -124t123.5 -96.5t146 -62.5t163 -22q82 0 158.5 22t143.5 62.5t122 96.5t94.5 124t61.5 145.5t22 160.5q0 124 -48 234t-130 191.5t-191.5 129t-232.5 47.5q-128 0 -239 -47.5t-193.5 -129t-130 -191.5t-47.5 -234z
M799 844q0 -46 16.5 -86.5t46 -70.5t70 -47t88.5 -17q43 0 81 17t66.5 47t45 70.5t16.5 86.5q0 43 -16.5 81.5t-45 67.5t-66.5 46.5t-81 17.5q-48 0 -88.5 -17.5t-70 -46.5t-46 -67.5t-16.5 -81.5zM1089 2299q0 32 10 59.5t28 47t43.5 30.5t57.5 11t58 -11t44 -30.5t28 -47
t10 -59.5v-274q0 -65 -38 -106t-102 -41t-101.5 41t-37.5 106v274zM679 2299q0 32 10 59.5t28 47t44 30.5t58 11t58 -11t44 -30.5t28 -47t10 -59.5v-274q0 -65 -38 -106t-102 -41t-102 41t-38 106v274z" />
    <glyph glyph-name="dochadaphinthuthai" unicode="&#xe0e;&#xe3a;" horiz-adv-x="1872" 
d="M1241 -963q0 54 21 102t56.5 83.5t83 56.5t101.5 21q52 0 99 -21t82 -56.5t56 -83.5t21 -102q0 -52 -21 -99t-56 -82t-82 -56t-99 -21q-54 0 -101.5 21t-83 56t-56.5 82t-21 99zM1716 -350q0 -52 -20 -97.5t-54 -79.5t-80 -54t-98 -20q-55 0 -102 22t-82 60
q-23 25 -52.5 47t-68 38.5t-86 26.5t-106.5 10q-65 0 -119 -13t-102 -36.5t-93 -57t-92 -73.5q-23 -20 -51.5 -28t-57.5 -5.5t-56 16t-46 37.5q-21 24 -28.5 52.5t-4.5 57t16.5 55t34.5 48.5q58 59 126 108.5t144.5 85.5t159 56t169.5 20q108 0 188.5 -23t138.5 -50v1179
q0 58 -18.5 115.5t-62 103.5t-114.5 74.5t-177 30.5q-81 1 -143.5 -14.5t-107.5 -40.5t-72 -55t-38 -58q26 -23 45.5 -49t32 -59.5t19 -77t6.5 -101.5v-739q0 -33 -11 -62.5t-31.5 -51.5t-48.5 -35t-61 -13h-300q-33 0 -61 13t-48.5 35t-31.5 51.5t-11 62.5t11 62.5
t31.5 51.5t48.5 35t61 13h38v581q0 36 -11 74.5t-41 75.5q-28 34 -44.5 58t-21.5 46t0.5 46.5t20.5 59.5q39 89 103.5 170.5t158.5 144t220 99.5t287 37q151 0 269 -27.5t206 -76t149 -116t99 -146.5t54.5 -167t16.5 -179v-1354z" />
    <glyph glyph-name="topatakphintuthai" unicode="&#xe0f;&#xe3a;" horiz-adv-x="1872" 
d="M1241 -963q0 54 21 102t56.5 83.5t83 56.5t101.5 21q52 0 99 -21t82 -56.5t56 -83.5t21 -102q0 -52 -21 -99t-56 -82t-82 -56t-99 -21q-54 0 -101.5 21t-83 56t-56.5 82t-21 99zM1716 -378q0 -51 -19.5 -94t-53 -74.5t-78.5 -49.5t-96 -18q-54 0 -100.5 19.5t-70.5 64.5
q-13 24 -26.5 46t-28.5 38.5t-32.5 26t-39.5 9.5q-35 0 -61 -24.5t-40 -60.5q-22 -52 -69.5 -85.5t-107.5 -33.5q-30 0 -57.5 9t-50.5 25.5t-40.5 39t-27.5 49.5q-14 36 -37.5 60.5t-61.5 24.5q-39 0 -69.5 -26.5t-45.5 -64.5q-17 -41 -44.5 -67.5t-61 -39.5t-70.5 -12
t-73 16t-60.5 42t-36.5 60t-11 70.5t16 73.5q29 68 71.5 117t96 81t115 47t128.5 15q48 0 90.5 -11t80 -29.5t69 -44t55.5 -54.5q22 27 50.5 51t62 42t70.5 28t75 10q56 0 98 -18.5t70 -43.5v1196q0 58 -18.5 115.5t-62 103.5t-114.5 74.5t-177 30.5q-81 1 -143.5 -14.5
t-107.5 -40.5t-72 -55t-38 -58q26 -23 45.5 -49t32 -59.5t19 -77t6.5 -101.5v-739q0 -33 -11 -62.5t-31.5 -51.5t-48.5 -35t-61 -13h-300q-33 0 -61 13t-48.5 35t-31.5 51.5t-11 62.5t11 62.5t31.5 51.5t48.5 35t61 13h38v581q0 36 -11 74.5t-41 75.5q-28 34 -44.5 58
t-21.5 46t0.5 46.5t20.5 59.5q39 89 103.5 170.5t158.5 144t220 99.5t287 37q151 0 269 -27.5t206 -76t149 -116t99 -146.5t54.5 -167t16.5 -179v-1382z" />
    <glyph glyph-name="dochadasarauthai" unicode="&#xe0e;&#xe38;" horiz-adv-x="1872" 
d="M1716 -1287q0 -39 -15 -72.5t-40.5 -57.5t-60.5 -37.5t-74 -13.5t-74 13.5t-61 37.5t-41 57.5t-15 72.5v263h-78q-31 0 -56.5 12t-44 32.5t-29 47.5t-10.5 58t10.5 58t29 47t44 32t56.5 12h319q31 0 56.5 -12t44 -32t29 -47t10.5 -58v-413zM1716 -350q0 -52 -20 -97.5
t-54 -79.5t-80 -54t-98 -20q-55 0 -102 22t-82 60q-23 25 -52.5 47t-68 38.5t-86 26.5t-106.5 10q-65 0 -119 -13t-102 -36.5t-93 -57t-92 -73.5q-23 -20 -51.5 -28t-57.5 -5.5t-56 16t-46 37.5q-21 24 -28.5 52.5t-4.5 57t16.5 55t34.5 48.5q58 59 126 108.5t144.5 85.5
t159 56t169.5 20q108 0 188.5 -23t138.5 -50v1179q0 58 -18.5 115.5t-62 103.5t-114.5 74.5t-177 30.5q-81 1 -143.5 -14.5t-107.5 -40.5t-72 -55t-38 -58q26 -23 45.5 -49t32 -59.5t19 -77t6.5 -101.5v-739q0 -33 -11 -62.5t-31.5 -51.5t-48.5 -35t-61 -13h-300
q-33 0 -61 13t-48.5 35t-31.5 51.5t-11 62.5t11 62.5t31.5 51.5t48.5 35t61 13h38v581q0 36 -11 74.5t-41 75.5q-28 34 -44.5 58t-21.5 46t0.5 46.5t20.5 59.5q39 89 103.5 170.5t158.5 144t220 99.5t287 37q151 0 269 -27.5t206 -76t149 -116t99 -146.5t54.5 -167
t16.5 -179v-1354z" />
    <glyph glyph-name="topataksarauthai" unicode="&#xe0f;&#xe38;" horiz-adv-x="1872" 
d="M1716 -1287q0 -39 -15 -72.5t-40.5 -57.5t-60.5 -37.5t-74 -13.5t-74 13.5t-61 37.5t-41 57.5t-15 72.5v263h-78q-31 0 -56.5 12t-44 32.5t-29 47.5t-10.5 58t10.5 58t29 47t44 32t56.5 12h319q31 0 56.5 -12t44 -32t29 -47t10.5 -58v-413zM1716 -378q0 -51 -19.5 -94
t-53 -74.5t-78.5 -49.5t-96 -18q-54 0 -100.5 19.5t-70.5 64.5q-13 24 -26.5 46t-28.5 38.5t-32.5 26t-39.5 9.5q-35 0 -61 -24.5t-40 -60.5q-22 -52 -69.5 -85.5t-107.5 -33.5q-30 0 -57.5 9t-50.5 25.5t-40.5 39t-27.5 49.5q-14 36 -37.5 60.5t-61.5 24.5
q-39 0 -69.5 -26.5t-45.5 -64.5q-17 -41 -44.5 -67.5t-61 -39.5t-70.5 -12t-73 16t-60.5 42t-36.5 60t-11 70.5t16 73.5q29 68 71.5 117t96 81t115 47t128.5 15q48 0 90.5 -11t80 -29.5t69 -44t55.5 -54.5q22 27 50.5 51t62 42t70.5 28t75 10q56 0 98 -18.5t70 -43.5v1196
q0 58 -18.5 115.5t-62 103.5t-114.5 74.5t-177 30.5q-81 1 -143.5 -14.5t-107.5 -40.5t-72 -55t-38 -58q26 -23 45.5 -49t32 -59.5t19 -77t6.5 -101.5v-739q0 -33 -11 -62.5t-31.5 -51.5t-48.5 -35t-61 -13h-300q-33 0 -61 13t-48.5 35t-31.5 51.5t-11 62.5t11 62.5
t31.5 51.5t48.5 35t61 13h38v581q0 36 -11 74.5t-41 75.5q-28 34 -44.5 58t-21.5 46t0.5 46.5t20.5 59.5q39 89 103.5 170.5t158.5 144t220 99.5t287 37q151 0 269 -27.5t206 -76t149 -116t99 -146.5t54.5 -167t16.5 -179v-1382z" />
    <glyph glyph-name="dochadasarauuthai" unicode="&#xe0e;&#xe39;" horiz-adv-x="1872" 
d="M1335 -894q0 39 15 74t41 60.5t61 40.5t74 15t74 -15t60.5 -40.5t40.5 -60.5t15 -74v-93q0 -94 -25.5 -177.5t-83 -146t-150.5 -99t-228 -36.5q-122 0 -210 29.5t-147.5 82t-91 125.5t-38.5 161l-31 1q-33 0 -61 12.5t-48 34.5t-31 51.5t-11 62.5t11 62.5t31 51.5
t48 34.5t61 12.5h260q33 0 61 -12.5t48 -34.5t31 -51.5t11 -62.5v-101q0 -65 25.5 -98t81.5 -33q106 0 106 131v93zM1716 -350q0 -52 -20 -97.5t-54 -79.5t-80 -54t-98 -20q-55 0 -102 22t-82 60q-23 25 -52.5 47t-68 38.5t-86 26.5t-106.5 10q-65 0 -119 -13t-102 -36.5
t-93 -57t-92 -73.5q-23 -20 -51.5 -28t-57.5 -5.5t-56 16t-46 37.5q-21 24 -28.5 52.5t-4.5 57t16.5 55t34.5 48.5q58 59 126 108.5t144.5 85.5t159 56t169.5 20q108 0 188.5 -23t138.5 -50v1179q0 58 -18.5 115.5t-62 103.5t-114.5 74.5t-177 30.5q-81 1 -143.5 -14.5
t-107.5 -40.5t-72 -55t-38 -58q26 -23 45.5 -49t32 -59.5t19 -77t6.5 -101.5v-739q0 -33 -11 -62.5t-31.5 -51.5t-48.5 -35t-61 -13h-300q-33 0 -61 13t-48.5 35t-31.5 51.5t-11 62.5t11 62.5t31.5 51.5t48.5 35t61 13h38v581q0 36 -11 74.5t-41 75.5q-28 34 -44.5 58
t-21.5 46t0.5 46.5t20.5 59.5q39 89 103.5 170.5t158.5 144t220 99.5t287 37q151 0 269 -27.5t206 -76t149 -116t99 -146.5t54.5 -167t16.5 -179v-1354z" />
    <glyph glyph-name="topataksarauuthai" unicode="&#xe0f;&#xe39;" horiz-adv-x="1872" 
d="M1335 -894q0 39 15 74t41 60.5t61 40.5t74 15t74 -15t60.5 -40.5t40.5 -60.5t15 -74v-93q0 -94 -25.5 -177.5t-83 -146t-150.5 -99t-228 -36.5q-122 0 -210 29.5t-147.5 82t-91 125.5t-38.5 161l-31 1q-33 0 -61 12.5t-48 34.5t-31 51.5t-11 62.5t11 62.5t31 51.5
t48 34.5t61 12.5h260q33 0 61 -12.5t48 -34.5t31 -51.5t11 -62.5v-101q0 -65 25.5 -98t81.5 -33q106 0 106 131v93zM1716 -378q0 -51 -19.5 -94t-53 -74.5t-78.5 -49.5t-96 -18q-54 0 -100.5 19.5t-70.5 64.5q-13 24 -26.5 46t-28.5 38.5t-32.5 26t-39.5 9.5
q-35 0 -61 -24.5t-40 -60.5q-22 -52 -69.5 -85.5t-107.5 -33.5q-30 0 -57.5 9t-50.5 25.5t-40.5 39t-27.5 49.5q-14 36 -37.5 60.5t-61.5 24.5q-39 0 -69.5 -26.5t-45.5 -64.5q-17 -41 -44.5 -67.5t-61 -39.5t-70.5 -12t-73 16t-60.5 42t-36.5 60t-11 70.5t16 73.5
q29 68 71.5 117t96 81t115 47t128.5 15q48 0 90.5 -11t80 -29.5t69 -44t55.5 -54.5q22 27 50.5 51t62 42t70.5 28t75 10q56 0 98 -18.5t70 -43.5v1196q0 58 -18.5 115.5t-62 103.5t-114.5 74.5t-177 30.5q-81 1 -143.5 -14.5t-107.5 -40.5t-72 -55t-38 -58q26 -23 45.5 -49
t32 -59.5t19 -77t6.5 -101.5v-739q0 -33 -11 -62.5t-31.5 -51.5t-48.5 -35t-61 -13h-300q-33 0 -61 13t-48.5 35t-31.5 51.5t-11 62.5t11 62.5t31.5 51.5t48.5 35t61 13h38v581q0 36 -11 74.5t-41 75.5q-28 34 -44.5 58t-21.5 46t0.5 46.5t20.5 59.5q39 89 103.5 170.5
t158.5 144t220 99.5t287 37q151 0 269 -27.5t206 -76t149 -116t99 -146.5t54.5 -167t16.5 -179v-1382z" />
    <glyph glyph-name=".notdef" horiz-adv-x="1151" 
d="M1176 1114v-41h16q20 0 20 29q-1 3 -4 6q-6 6 -16 6h-16zM1184 1069h-8v-37h-13v94h29q15 0 24 -6t9 -18q0 -25 -8.5 -29t-20.5 -4l29 -37h-13zM1192 1020q17 0 28.5 5.5t19 13.5t10.5 17t3 17q0 34 -16.5 50t-44.5 16t-47 -16t-19 -50q0 -22 14.5 -37.5t51.5 -15.5z
M1192 1147q34 0 52 -20t18 -54q0 -22 -18 -41.5t-52 -19.5q-37 0 -55.5 19.5t-18.5 41.5q0 34 18.5 54t55.5 20zM561 881q27 -3 63.5 -7.5t76.5 -10.5t81.5 -13.5t78.5 -16.5t65.5 -19.5t44.5 -22.5q-29 54 -75 96.5t-101.5 72t-116.5 45t-121 15.5q-48 0 -94.5 -9
t-89 -27.5t-78.5 -46.5t-62 -65q50 4 101 6.5t100 2.5h127zM1049 1102v-397q-140 40 -311.5 69t-360.5 29q-133 0 -262 -12q12 61 48.5 117.5t93.5 99.5t132 68.5t164 25.5q86 0 155 -19.5t121.5 -48.5t88 -62t53.5 -59v189h78zM426 352q0 25 -15 35t-30 10q-25 0 -37 -10
t-12 -35q0 -41 49 -41q15 0 30 10t15 31zM90 389q0 63 25.5 112.5t67 83.5t94.5 52t108 18q57 0 108.5 -15.5t90 -47.5t61.5 -80.5t23 -114.5v-323h303v565h78v-635h-533v70h82v332q0 44 -16.5 76.5t-45 53.5t-66.5 31.5t-81 10.5t-83 -12t-70.5 -35.5t-49 -57t-18.5 -76.5
v-295l164 164q-6 1 -16.5 7.5t-20.5 17t-17.5 26t-7.5 35.5q0 53 31 82t84 29q23 0 43 -8.5t35 -23.5t24 -35.5t9 -43.5q0 -18 -5.5 -33.5t-13 -26.5t-16.5 -18t-15 -8q-2 -6 -14.5 -18.5t-31.5 -30.5t-42.5 -41t-46.5 -49q-31 -28 -64 -58.5t-67 -64.5h-90v385z" />
    <glyph glyph-name=".null" 
 />
    <glyph glyph-name="nonmarkingreturn" horiz-adv-x="791" 
 />
    <glyph glyph-name="space" unicode=" " horiz-adv-x="696" 
 />
    <glyph glyph-name="exclam" unicode="!" horiz-adv-x="1126" 
d="M778 1409l-86 -755q-4 -29 -14.5 -48.5t-27.5 -31t-39 -16t-48 -4.5q-27 0 -49 4.5t-38.5 16t-27.5 31t-15 48.5l-85 755v395q0 105 56 157.5t159 52.5t159 -52.5t56 -157.5v-395zM340 204q0 46 17.5 86.5t48 71t71 48t86.5 17.5t86.5 -17.5t71 -48t48 -71t17.5 -86.5
t-17.5 -86.5t-48 -71t-71 -48t-86.5 -17.5t-86.5 17.5t-71 48t-48 71t-17.5 86.5z" />
    <glyph glyph-name="quotedbl" unicode="&#x22;" horiz-adv-x="1266" 
d="M711 1859q0 38 11.5 70t33.5 55.5t52 36.5t68 13q37 0 67.5 -13t52.5 -36.5t33.5 -55.5t11.5 -70v-428q0 -38 -11.5 -70t-33.5 -55t-52.5 -36t-67.5 -13q-38 0 -68 13t-52 36t-33.5 55t-11.5 70v428zM228 1859q0 38 12 70t33.5 55.5t52 36.5t68.5 13q37 0 67.5 -13
t52.5 -36.5t33.5 -55.5t11.5 -70v-428q0 -38 -11.5 -70t-33.5 -55t-52.5 -36t-67.5 -13q-38 0 -68.5 13t-52 36t-33.5 55t-12 70v428z" />
    <glyph glyph-name="numbersign" unicode="#" horiz-adv-x="1708" 
d="M456 1142h-108q-38 0 -65 11.5t-43.5 30t-24 42t-7.5 47.5q0 25 7.5 48.5t24 42t43.5 30t65 11.5h149l60 422q4 30 14 56t28.5 45.5t47 30.5t71.5 11q27 0 51 -8t42 -22.5t29 -35.5t11 -47q0 -12 -2 -34t-7 -61l-53 -357h255l60 422q4 30 14 56t28 45.5t47 30.5t72 11
q27 0 51 -8t42.5 -22.5t29 -35.5t10.5 -47q0 -12 -2 -34t-7 -61l-52 -357h111q37 0 63 -11.5t42.5 -30t24 -42t7.5 -48.5q0 -24 -7.5 -47.5t-24 -42t-42.5 -30t-63 -11.5h-151l-45 -330h108q38 0 64.5 -11t43.5 -29.5t24.5 -42t7.5 -47.5q0 -25 -7.5 -49t-24.5 -42.5
t-43.5 -29.5t-64.5 -11h-149l-61 -423q-4 -30 -13.5 -56t-28 -45t-47.5 -30t-72 -11q-27 0 -51 8t-42 22.5t-28.5 35t-10.5 46.5q0 12 2 34.5t6 60.5l51 358h-252l-60 -423q-5 -30 -14.5 -56t-28 -45t-47.5 -30t-72 -11q-27 0 -51 8t-42.5 22.5t-29 35t-10.5 46.5
q0 12 2.5 34.5t6.5 60.5l52 358h-110q-37 0 -63.5 11t-43 29.5t-24 42.5t-7.5 49q0 24 7.5 47.5t24 42t43 29.5t63.5 11h150zM1004 1142h-254l-46 -330h253z" />
    <glyph glyph-name="dollar" unicode="$" horiz-adv-x="1802" 
d="M814 850q-151 28 -270 77.5t-201 120.5t-125 164.5t-43 211.5q0 144 51.5 253t139.5 183t204 113t244 44v164q0 19 8 36.5t21 31t29.5 21.5t33.5 8t33.5 -8t29.5 -21.5t21 -31t8 -36.5v-164q53 -2 121 -14.5t139.5 -36.5t139.5 -59t121.5 -81t86 -103.5t32.5 -126.5
q0 -41 -14 -74t-37.5 -55.5t-54.5 -34.5t-66 -12q-45 0 -75.5 22.5t-57.5 56.5t-54.5 73.5t-64.5 73.5t-89 57.5t-127 24.5v-536q90 -20 174.5 -43.5t159 -57t136.5 -78.5t106.5 -108t69 -146t24.5 -192q0 -142 -47.5 -249.5t-135 -181.5t-211 -115t-276.5 -50v-175
q0 -18 -8 -35.5t-21 -31t-29.5 -21.5t-33.5 -8t-33.5 8t-29.5 21.5t-21 31t-8 35.5v175q-115 3 -210.5 27t-171.5 63t-132 90t-93 108t-55.5 116t-18.5 115q0 86 45.5 132t124.5 46q57 0 91 -17t54 -44.5t31.5 -63t23.5 -73t30.5 -74t52.5 -66t88.5 -48.5t139.5 -23v591z
M814 1728q-70 -2 -124.5 -22.5t-92.5 -53.5t-58 -75.5t-20 -88.5q0 -106 70.5 -170t224.5 -95v505zM998 259q61 4 120 21.5t104.5 51t73.5 84t28 121.5q0 72 -30.5 120t-77.5 80t-105 50.5t-113 31.5v-560z" />
    <glyph glyph-name="percent" unicode="%" horiz-adv-x="2777" 
d="M202 1425q0 77 10 150.5t33 138.5t59 119.5t88.5 94t122 61.5t158.5 22q138 0 230.5 -46.5t148 -126t78.5 -185t23 -223.5q0 -75 -11.5 -147.5t-36.5 -137t-63 -119t-91.5 -94t-122.5 -62t-155 -22.5q-129 0 -218.5 44.5t-146 122.5t-81.5 183.5t-25 226.5zM1619 557
q0 117 24.5 223.5t81 188t149 130t229.5 48.5q136 0 227 -46.5t145 -126t76.5 -185.5t22.5 -224q0 -114 -26.5 -219t-83 -185.5t-146 -128.5t-215.5 -48q-132 0 -224 45t-150 123t-84 182.5t-26 222.5zM1750 1965q8 15 20 31t28 29t36 21.5t44 8.5q28 0 52 -10.5t41.5 -27
t27.5 -37.5t10 -43q0 -23 -8.5 -49t-24.5 -55l-950 -1799q-8 -15 -20 -31t-27.5 -29t-35.5 -21t-45 -8q-28 0 -52 10t-41.5 26.5t-27.5 37.5t-10 43q0 24 8.5 50t24.5 55zM501 1430q0 -53 5.5 -112t23.5 -109t51 -83t88 -33q58 0 93.5 32.5t55 82.5t26 109t6.5 113
q0 51 -4.5 109.5t-22.5 109t-53.5 84t-96.5 33.5q-53 0 -86.5 -33.5t-52.5 -84t-26 -109t-7 -109.5zM1922 561q0 -49 6 -107t24 -108t52 -83.5t91 -33.5t91.5 32t53 81.5t25 108.5t6.5 114q0 51 -5.5 110t-23.5 109.5t-51 84t-88 33.5q-39 0 -67.5 -15.5t-48.5 -42
t-32.5 -60.5t-20 -72t-10 -77t-2.5 -74z" />
    <glyph glyph-name="ampersand" unicode="&#x26;" horiz-adv-x="1810" 
d="M1348 704q26 51 53 106t53 93q29 39 64.5 62t77.5 23q33 0 64.5 -12t56 -33.5t40 -50t15.5 -61.5q0 -36 -17.5 -85t-46 -100t-64.5 -99.5t-73 -83.5l163 -199q38 -46 38 -110q0 -32 -14 -63t-40 -55.5t-64 -39.5t-86 -15q-23 0 -41.5 6t-34 16.5t-29.5 24.5t-28 30
l-125 146q-66 -65 -138.5 -110.5t-151.5 -74t-164 -41.5t-177 -13q-107 0 -193.5 22t-154 61t-117 91.5t-81.5 113.5t-47.5 127t-15.5 132q0 111 33 202.5t90.5 166.5t135.5 133.5t168 102.5q-37 42 -71 86t-60 91.5t-41.5 100.5t-15.5 115q0 119 44 210.5t119 153.5
t173.5 94t207.5 32q107 0 191 -21t146.5 -57t105.5 -83.5t69.5 -101t38.5 -109t12 -106.5q0 -82 -25.5 -156t-71 -137.5t-108 -114.5t-135.5 -87zM668 1544q0 -52 14.5 -92t39 -73.5t57.5 -63.5t71 -62q34 20 73 45.5t72.5 59.5t55.5 78t22 102q0 37 -15.5 70t-42.5 58
t-64.5 39.5t-81.5 14.5t-81 -13.5t-63.5 -37.5t-41.5 -56t-15 -69zM696 896q-52 -33 -99 -67.5t-82 -75.5t-56 -91t-21 -114q0 -61 26 -109.5t69 -82t98.5 -51.5t113.5 -18q109 0 189.5 39.5t142.5 120.5z" />
    <glyph glyph-name="quotesingle" unicode="'" horiz-adv-x="770" 
d="M218 1859q0 38 12 70t33.5 55.5t52 36.5t68.5 13q37 0 67.5 -13t52.5 -36.5t33.5 -55.5t11.5 -70v-428q0 -38 -11.5 -70t-33.5 -55t-52.5 -36t-67.5 -13q-38 0 -68.5 13t-52 36t-33.5 55t-12 70v428z" />
    <glyph glyph-name="parenleft" unicode="(" horiz-adv-x="922" 
d="M128 751q0 228 55 467t155 478q43 101 77 173.5t61.5 122t51 79t45.5 45t44 20.5t48 5q34 0 62.5 -11t49 -29.5t32 -43t11.5 -52.5q0 -37 -20.5 -99.5t-51.5 -148.5t-66.5 -193.5t-66.5 -234.5t-51.5 -272t-20.5 -306t20.5 -306t51.5 -272t66.5 -234.5t66.5 -193.5
t51.5 -148.5t20.5 -99.5q0 -28 -11.5 -52.5t-32 -43t-49 -29.5t-62.5 -11q-26 0 -48 5t-44 20.5t-45.5 45t-51 78.5t-61.5 121.5t-77 173.5q-100 239 -155 478.5t-55 467.5z" />
    <glyph glyph-name="parenright" unicode=")" horiz-adv-x="922" 
d="M794 751q0 -228 -55 -467.5t-155 -478.5q-43 -101 -77 -173.5t-61.5 -121.5t-51 -78.5t-45.5 -45t-44 -20.5t-48 -5q-34 0 -62.5 11t-49 29.5t-32 43t-11.5 52.5q0 37 20.5 99.5t51.5 148.5t66.5 193.5t66.5 234.5t51.5 272t20.5 306t-20.5 306t-51.5 272t-66.5 234.5
t-66.5 193.5t-51.5 148.5t-20.5 99.5q0 28 11.5 52.5t32 43t49 29.5t62.5 11q26 0 48 -5t44 -20.5t45.5 -45t51 -79t61.5 -122t77 -173.5q100 -239 155 -478t55 -467z" />
    <glyph glyph-name="asterisk" unicode="*" horiz-adv-x="1139" 
d="M451 1971q0 62 31 95t88 33t88 -33t31 -95v-235l205 74q17 7 38 12t35 5q15 0 35 -7.5t38.5 -23.5t31 -40t12.5 -57q0 -80 -100 -111l-116 -34l-116 -34l159 -207q14 -18 24 -38t10 -43q0 -36 -15 -59.5t-36 -37t-42.5 -18.5t-33.5 -5q-30 0 -56 12t-41 34
q-37 56 -75.5 112.5t-75.5 112.5q-38 -57 -75.5 -112.5t-75.5 -112.5q-15 -22 -41 -34t-55 -12q-13 0 -34.5 5t-42.5 18.5t-36 37t-15 59.5q0 23 10 43t24 38l159 207l-232 68q-100 31 -100 111q0 33 12.5 57t31 40t38.5 23.5t35 7.5q14 0 35 -5t38 -12l205 -73v234z" />
    <glyph glyph-name="plus" unicode="+" horiz-adv-x="1667" 
d="M671 1371q0 42 11.5 77t32.5 60.5t51 39.5t68 14t68 -14t51 -39.5t32.5 -60.5t11.5 -77v-419h416q87 0 139 -43t52 -117t-52 -117t-139 -43h-416v-420q0 -42 -11.5 -76.5t-32.5 -60t-51 -39.5t-68 -14t-68 14t-51 39.5t-32.5 60t-11.5 76.5v420h-416q-43 0 -78.5 13.5
t-60.5 36t-38.5 51t-13.5 59.5q0 74 52 117t139 43h416v419z" />
    <glyph glyph-name="comma" unicode="," horiz-adv-x="852" 
d="M183 204q0 46 17.5 86.5t48 71t71 48t86.5 17.5q66 0 116 -22t83 -62t49.5 -97t16.5 -126q0 -72 -11 -132t-30.5 -110t-46 -91.5t-58.5 -76.5q-21 -23 -50.5 -49t-63.5 -48t-69 -36t-66 -14q-45 0 -69 24.5t-24 56.5q0 28 19 48t47.5 39.5t63.5 41.5t67 54t57 78t34 114
q-36 -24 -92 -24q-47 0 -83.5 17.5t-61.5 46.5t-38 66.5t-13 78.5z" />
    <glyph glyph-name="hyphen" unicode="-" horiz-adv-x="1338" 
d="M1071 952q38 0 71.5 -8.5t59 -27t40 -49t14.5 -74.5q0 -45 -14.5 -75.5t-40 -49.5t-59 -27.5t-71.5 -8.5h-805q-39 0 -72.5 8.5t-58.5 27.5t-39.5 49.5t-14.5 75.5q0 44 14.5 74.5t39.5 49t58.5 27t72.5 8.5h805z" />
    <glyph glyph-name="period" unicode="." horiz-adv-x="852" 
d="M199 216q0 47 17.5 88t48.5 72t72 48.5t88 17.5t88 -17.5t72 -48.5t48.5 -72t17.5 -88t-17.5 -88t-48.5 -72t-72 -48.5t-88 -17.5t-88 17.5t-72 48.5t-48.5 72t-17.5 88z" />
    <glyph glyph-name="slash" unicode="/" horiz-adv-x="1114" 
d="M760 1961q7 17 17 37.5t28 38t46 29t72 11.5q26 0 53.5 -10t50 -28.5t37 -45t14.5 -60.5q0 -23 -7.5 -46.5t-16.5 -46.5l-700 -1771q-7 -17 -17.5 -37t-28.5 -37.5t-46.5 -29t-71.5 -11.5q-26 0 -53 9.5t-49.5 28t-37 45t-14.5 60.5q0 23 7.5 46.5t16.5 46.5z" />
    <glyph glyph-name="zero" unicode="0" horiz-adv-x="1626" 
d="M90 979q0 80 3.5 165.5t14.5 171.5t32.5 169t58 157.5t89.5 137.5t127 109t172 72t224 26q169 0 288.5 -45t200 -121.5t127.5 -177.5t71 -213t31 -228.5t7 -222.5q0 -112 -7 -230.5t-31 -230.5t-71 -212.5t-127.5 -175.5t-200 -119t-288.5 -44q-126 0 -224 25t-172 70
t-127 107t-89.5 136t-58 157t-32.5 170t-14.5 175t-3.5 172zM504 979q0 -61 1.5 -132.5t10.5 -144t28 -140t53 -119.5t86 -83.5t128 -31.5q77 0 130 31.5t87.5 83.5t53.5 119.5t28 140t10.5 144t1.5 132.5q0 59 -1.5 130t-10.5 142.5t-28 138.5t-53.5 118.5t-87.5 82.5
t-130 31q-75 0 -126.5 -31t-86 -82.5t-53.5 -118.5t-28 -138.5t-11 -142.5t-2 -130z" />
    <glyph glyph-name="one" unicode="1" horiz-adv-x="1626" 
d="M698 1343q-55 -22 -107 -37.5t-98.5 -24.5t-85.5 -13t-66 -4q-68 0 -103 32t-35 116q0 37 10.5 64t34 46t60.5 32t90 23l101 22q75 16 122 49.5t77.5 74t51.5 83.5t46 78t59.5 57.5t92.5 22.5q33 0 61.5 -8t50 -29t34 -57t12.5 -91v-1565q0 -53 -10.5 -97t-34.5 -75.5
t-63 -49t-96 -17.5t-96 17.5t-63 49t-34.5 75.5t-10.5 97v1129z" />
    <glyph glyph-name="two" unicode="2" horiz-adv-x="1626" 
d="M1353 352q38 0 71 -10t57 -31.5t37.5 -55t13.5 -80.5q0 -94 -54 -134.5t-147 -40.5h-1016q-59 0 -101 18.5t-69 48t-39.5 66.5t-12.5 73q0 149 127 310.5t383 328.5q94 61 168 109t130.5 89t95.5 77.5t64 76t36.5 84t11.5 101.5q0 68 -23.5 118t-63 83t-91 49t-106.5 16
q-65 0 -119.5 -15t-98 -49.5t-77 -91t-55.5 -140.5q-10 -39 -22.5 -68t-32 -48.5t-47.5 -29.5t-69 -10t-77 9.5t-62.5 31.5t-42 57.5t-15.5 87.5q0 85 26 162.5t73 144.5t113 121t146.5 92t172.5 59t192 21q162 0 290.5 -48t217.5 -128.5t136 -185.5t47 -219
q0 -90 -13.5 -161t-40 -129.5t-65 -106.5t-88.5 -90.5t-111.5 -82t-133.5 -81.5q-115 -67 -207 -122.5t-159.5 -103.5t-108.5 -90.5t-54 -81.5h813z" />
    <glyph glyph-name="three" unicode="3" horiz-adv-x="1626" 
d="M107 442q0 43 14.5 78.5t40.5 61t61 40t77 14.5q46 0 75.5 -14t50.5 -37.5t36 -53t32 -60.5t38.5 -60.5t54.5 -53t81.5 -37.5t118.5 -14q76 0 133 21t95 59t56.5 91t18.5 117q0 49 -10.5 91.5t-36.5 75t-72 53.5t-116 29q-29 3 -67.5 8.5t-73.5 20.5t-59.5 43t-24.5 76
q0 54 15 88t45 54t74 29t102 12q102 6 149.5 63t47.5 152q0 62 -20.5 106t-56.5 72.5t-83.5 41.5t-101.5 13q-80 0 -131 -22.5t-85 -56.5t-57.5 -73.5t-49 -73.5t-58.5 -56.5t-87 -22.5q-35 0 -67.5 8.5t-58 28t-41 51t-15.5 78.5q0 84 29 152.5t78.5 121.5t115.5 92
t139 64.5t149 37.5t147 12q177 -1 299.5 -47t199.5 -121t111.5 -171.5t34.5 -196.5q0 -133 -58 -228t-173 -158q76 -22 131.5 -63t90.5 -97t52 -124.5t17 -146.5q0 -164 -58 -285t-158 -201t-234 -119.5t-285 -39.5q-128 0 -227.5 24.5t-174 65t-126 91.5t-83.5 104
t-46.5 103t-14.5 89z" />
    <glyph glyph-name="four" unicode="4" horiz-adv-x="1626" 
d="M915 1366h-6l-455 -602h461v602zM915 430h-673q-53 0 -92 20.5t-64.5 51.5t-38 68t-12.5 70q0 54 13 90.5t39 71.5l838 1087q31 42 75 59.5t102 17.5q55 0 93.5 -14.5t63 -40.5t36 -62.5t11.5 -80.5v-1004h136q34 0 62.5 -13.5t48 -36t30.5 -53t11 -64.5t-11 -64.5
t-30.5 -53t-48 -36t-62.5 -13.5h-136v-263q0 -43 -10.5 -78.5t-34 -60.5t-61 -39t-90.5 -14t-90 14t-60.5 39t-34 60.5t-10.5 78.5v263z" />
    <glyph glyph-name="five" unicode="5" horiz-adv-x="1626" 
d="M236 1776q6 36 21.5 68.5t39 56.5t54 38.5t65.5 14.5h843q40 0 73.5 -10t58.5 -31.5t39 -55t14 -81.5q0 -47 -14 -80.5t-38 -55t-57 -31.5t-71 -10h-716l-77 -421l7 -6q38 33 83.5 57t95.5 40.5t103.5 24.5t107.5 8q132 0 252.5 -38.5t212.5 -117.5t146.5 -199t54.5 -282
q0 -170 -58 -300.5t-161 -219.5t-245.5 -134.5t-310.5 -45.5q-122 0 -218.5 19.5t-170.5 51.5t-127 73.5t-86.5 86t-49 88t-15.5 80.5q0 42 14.5 78t41.5 61.5t64.5 40t82.5 14.5q43 0 73.5 -20t58 -50.5t55.5 -66t66 -66t89.5 -50.5t126.5 -20q80 0 146.5 30.5t114 81
t73.5 115t26 133.5q0 90 -29.5 153.5t-81 104t-121 59t-148.5 18.5q-56 0 -99.5 -10t-79.5 -25.5t-66.5 -33t-59.5 -33t-59.5 -25.5t-65.5 -10q-76 0 -117.5 29t-59 76t-16 107t12.5 123z" />
    <glyph glyph-name="six" unicode="6" horiz-adv-x="1626" 
d="M486 1095q44 43 90.5 76.5t98.5 56t111 34t128 11.5q153 0 271.5 -49t198.5 -133t121.5 -196t41.5 -238q0 -172 -54.5 -301.5t-150 -215.5t-225 -129.5t-278.5 -43.5q-145 0 -257 36t-195.5 99.5t-140.5 149t-92 185.5t-50.5 209.5t-15.5 219.5q0 309 57 522.5t164 346
t259 191t343 58.5q121 0 221.5 -32.5t172.5 -84t111.5 -115.5t39.5 -128q0 -38 -13.5 -70.5t-36.5 -57.5t-54.5 -39t-67.5 -14q-45 0 -77.5 18t-59.5 44.5t-52 57.5t-56 57.5t-70.5 44.5t-94.5 18q-106 0 -180 -48t-120 -125t-67 -173t-21 -192v-50zM511 630
q0 -80 22.5 -144t64 -108.5t100.5 -68.5t133 -24t132.5 24t99.5 68.5t63 108.5t22 144q0 88 -24.5 153t-67 107t-100.5 62.5t-125 20.5q-66 0 -124.5 -22.5t-102 -66.5t-68.5 -108t-25 -146z" />
    <glyph glyph-name="seven" unicode="7" horiz-adv-x="1626" 
d="M1337 1954q39 0 73.5 -9.5t59.5 -32.5t39.5 -62t14.5 -98q0 -42 -20 -80t-54.5 -82t-81.5 -99.5t-102 -133t-115.5 -181.5t-121 -245.5t-119.5 -325t-111 -420.5q-13 -62 -27.5 -104t-37 -68t-55 -37.5t-80.5 -11.5q-59 0 -97 16t-60.5 44.5t-31 67.5t-8.5 84
q0 52 15.5 127.5t43 166t67 192.5t87.5 207t103.5 209.5t115.5 200t123.5 178t128.5 144.5h-856q-36 0 -68 10t-55 31t-36.5 54.5t-13.5 80.5q0 48 13.5 81.5t37.5 54.5t56.5 31t71.5 10h1101z" />
    <glyph glyph-name="eight" unicode="8" horiz-adv-x="1626" 
d="M89 590q0 81 19.5 152.5t57.5 130.5t95.5 103t133.5 69q-58 28 -104.5 71.5t-79.5 96.5t-50.5 115t-17.5 128q0 115 46 212.5t132 168t210.5 110.5t280.5 40t280.5 -40t210.5 -110.5t132 -168t46 -212.5q0 -66 -17.5 -128t-50.5 -115t-79.5 -96.5t-104.5 -71.5
q76 -25 133.5 -69t96 -103t58 -130.5t19.5 -152.5q0 -118 -30.5 -210t-83 -161.5t-123 -118t-151 -78.5t-167 -43.5t-169.5 -13.5t-169 13.5t-166.5 43.5t-151 78.5t-123 118t-83 161.5t-30.5 210zM484 587q0 -72 24 -128.5t67.5 -95.5t104 -59.5t132.5 -20.5t132 20.5
t103.5 59.5t68 95.5t24.5 128.5q0 45 -16.5 100t-55 103.5t-101 81t-155.5 32.5q-92 0 -155 -32.5t-101.5 -81t-55 -103.5t-16.5 -100zM522 1428q0 -66 22.5 -114t61.5 -79.5t92 -47t114 -15.5t114 15.5t92 47t61.5 79.5t22.5 114q0 62 -22.5 110t-61.5 80.5t-92 49.5
t-114 17t-114 -17t-92 -49.5t-61.5 -80.5t-22.5 -110z" />
    <glyph glyph-name="nine" unicode="9" horiz-adv-x="1626" 
d="M1149 856q-44 -43 -90.5 -76.5t-98.5 -56t-111 -34t-128 -11.5q-153 0 -271.5 49t-198.5 133t-121.5 196t-41.5 238q0 172 54.5 301.5t150 215.5t225 129.5t278.5 43.5q145 0 257 -36t195.5 -99.5t140.5 -149t92 -185.5t50.5 -209.5t15.5 -219.5q0 -309 -57 -522.5
t-164 -346t-259.5 -191t-342.5 -58.5q-121 0 -221.5 32.5t-172.5 84t-111.5 115.5t-39.5 128q0 37 13.5 70t36.5 58t54.5 39t67.5 14q45 0 77.5 -18t59.5 -44.5t52 -57.5t56 -57.5t70 -44.5t95 -18q106 0 180 48t120 125t67 173t21 192v50zM1124 1321q0 80 -22.5 144
t-64 108.5t-100.5 68.5t-133 24t-132.5 -24t-99.5 -68.5t-63 -108.5t-22 -144q0 -89 24.5 -153.5t67 -106.5t100.5 -62.5t125 -20.5q66 0 124.5 22.5t102 66.5t68.5 107.5t25 146.5z" />
    <glyph glyph-name="colon" unicode=":" horiz-adv-x="852" 
d="M199 1239q0 47 17.5 88t48.5 72t72 48.5t88 17.5t88 -17.5t72 -48.5t48.5 -72t17.5 -88t-17.5 -88t-48.5 -72t-72 -48.5t-88 -17.5t-88 17.5t-72 48.5t-48.5 72t-17.5 88zM199 216q0 47 17.5 88t48.5 72t72 48.5t88 17.5t88 -17.5t72 -48.5t48.5 -72t17.5 -88t-17.5 -88
t-48.5 -72t-72 -48.5t-88 -17.5t-88 17.5t-72 48.5t-48.5 72t-17.5 88z" />
    <glyph glyph-name="semicolon" unicode=";" horiz-adv-x="852" 
d="M199 1239q0 47 17.5 88t48.5 72t72 48.5t88 17.5t88 -17.5t72 -48.5t48.5 -72t17.5 -88t-17.5 -88t-48.5 -72t-72 -48.5t-88 -17.5t-88 17.5t-72 48.5t-48.5 72t-17.5 88zM183 204q0 46 17.5 86.5t48 71t71 48t86.5 17.5q66 0 116 -22t83 -62t49.5 -97t16.5 -126
q0 -72 -11 -132t-30.5 -110t-46 -91.5t-58.5 -76.5q-21 -23 -50.5 -49t-63.5 -48t-69 -36t-66 -14q-45 0 -69 24.5t-24 56.5q0 28 19 48t47.5 39.5t63.5 41.5t67 54t57 78t34 114q-36 -24 -92 -24q-47 0 -83.5 17.5t-61.5 46.5t-38 66.5t-13 78.5z" />
    <glyph glyph-name="less" unicode="&#x3c;" horiz-adv-x="1794" 
d="M627 821l876 -384q43 -18 68 -38.5t38 -42t17 -44.5t4 -46q0 -33 -11 -60t-31 -46.5t-47 -30t-60 -10.5q-29 0 -64 6.5t-86 31.5l-1107 509q-43 20 -71.5 62t-28.5 93t28.5 93t71.5 62l1107 508q51 25 86 32t64 7q33 0 60 -10.5t47 -30t31 -46.5t11 -60q0 -24 -4 -47
t-17 -44.5t-38 -42t-68 -38.5z" />
    <glyph glyph-name="equal" unicode="=" horiz-adv-x="1667" 
d="M1412 1231q43 0 78.5 -11.5t60.5 -33t38.5 -51.5t13.5 -67t-13.5 -67t-38.5 -51.5t-60.5 -33t-78.5 -11.5h-1158q-43 0 -78.5 14t-60.5 37t-38.5 52t-13.5 60q0 37 13.5 67t38.5 51.5t60.5 33t78.5 11.5h1158zM1412 675q43 0 78.5 -11.5t60.5 -33t38.5 -51.5t13.5 -67
t-13.5 -67t-38.5 -51.5t-60.5 -33t-78.5 -11.5h-1158q-43 0 -78.5 14t-60.5 37t-38.5 52t-13.5 60q0 37 13.5 67t38.5 51.5t60.5 33t78.5 11.5h1158z" />
    <glyph glyph-name="greater" unicode="&#x3e;" horiz-adv-x="1794" 
d="M291 1204q-43 18 -68 38.5t-38 42t-17 44.5t-4 47q0 33 11 60t31 46.5t47 30t60 10.5q29 0 64 -7t86 -32l1107 -508q43 -20 71.5 -62t28.5 -93t-28.5 -93t-71.5 -62l-1107 -509q-51 -25 -86 -31.5t-64 -6.5q-33 0 -60 10.5t-47 30t-31 46.5t-11 60q0 23 4 46t17 44.5
t38 42t68 38.5l876 384z" />
    <glyph glyph-name="question" unicode="?" horiz-adv-x="1656" 
d="M175 1530q0 68 24 133t67 122t102 105t129.5 82.5t149 54t161.5 19.5q87 0 171.5 -14t161 -43.5t141.5 -74.5t112 -107t74 -141.5t27 -177.5q0 -91 -30 -164t-77.5 -132.5t-105 -107.5t-111.5 -88t-99 -74.5t-66 -67.5q-16 -24 -26.5 -51t-20.5 -53t-22 -49.5t-31 -41.5
t-48.5 -28.5t-73.5 -10.5t-76.5 16.5t-54 43.5t-32 60.5t-10.5 66.5q0 62 20.5 113t53.5 94.5t75.5 81.5t87 73.5t87 70.5t75.5 73t53.5 81t20.5 94q0 114 -68.5 177t-190.5 63q-65 0 -109 -16t-74.5 -41.5t-50 -59t-35 -68t-31.5 -67.5t-38 -58.5t-54.5 -41.5t-81.5 -16
q-35 0 -67 11t-56 32t-38.5 53t-14.5 74zM573 210q0 47 17.5 88.5t47.5 73t70.5 49.5t86.5 18q45 0 85.5 -18t71 -49.5t48 -73t17.5 -88.5t-17.5 -88.5t-48 -73t-71 -49.5t-85.5 -18q-46 0 -86.5 18t-70.5 49.5t-47.5 73t-17.5 88.5z" />
    <glyph glyph-name="at" unicode="@" horiz-adv-x="2384" 
d="M943 944q0 -58 16.5 -103t45.5 -76t68.5 -47t86.5 -16q58 0 106.5 23.5t83.5 64.5t54.5 97.5t19.5 121.5q0 52 -13.5 95t-40 74t-65.5 48t-90 17q-59 0 -109 -24t-86 -65.5t-56.5 -95.5t-20.5 -114zM1669 846l-5 -22.5t-5.5 -27.5t-4 -27t-1.5 -21q0 -25 11 -39.5
t40 -14.5q37 0 79 27.5t78 81t59.5 131.5t23.5 179q0 165 -53.5 291.5t-149.5 212t-228.5 129.5t-289.5 44q-105 0 -201.5 -28t-180 -79t-152.5 -122.5t-117.5 -158.5t-75.5 -187.5t-27 -208.5q0 -182 59.5 -326t164.5 -244t247 -153.5t307 -53.5q102 0 178.5 13.5t134 33
t98.5 43t72 43t55 33t47 13.5q20 0 38.5 -8.5t33 -23t23 -34t8.5 -40.5q0 -37 -32 -74.5t-85.5 -73t-123.5 -66.5t-146.5 -54t-154 -36.5t-146.5 -13.5q-147 0 -283.5 34t-255.5 98t-217 155t-168 204.5t-108.5 247t-38.5 283.5q0 147 37.5 280.5t106.5 247.5t165.5 207
t213.5 158t251.5 100.5t280.5 35.5q130 0 251.5 -24.5t228 -73.5t195 -124t152 -175.5t98.5 -228t35 -282.5q0 -138 -36.5 -245t-96 -187t-135 -135t-152 -88.5t-148 -48.5t-123.5 -15q-159 0 -163 139h-5q-50 -57 -125 -88t-158 -31q-82 0 -155 37t-127.5 101.5t-86 152
t-31.5 188.5q0 94 19.5 177t54.5 153t83.5 125.5t105.5 94.5t121.5 59.5t132.5 20.5q62 0 111.5 -10.5t89.5 -31.5t73 -52.5t63 -74.5l11 49q7 32 21.5 51t32.5 29.5t38 14t38 3.5q25 0 46.5 -7.5t38 -22.5t26 -37t9.5 -50q0 -12 -2.5 -31t-8.5 -48z" />
    <glyph glyph-name="A" unicode="A" horiz-adv-x="1974" 
d="M723 1866q29 75 82.5 105t136.5 30h106q38 0 74 -6t67 -23.5t57 -49t44 -83.5l542 -1490q6 -17 14 -38.5t14.5 -45t11 -46t4.5 -40.5q0 -41 -16.5 -76.5t-45.5 -62t-67.5 -41.5t-81.5 -15q-74 0 -125.5 28t-77.5 94l-114 324h-724l-117 -324q-23 -66 -71.5 -94
t-129.5 -28q-46 0 -84.5 13.5t-66 39t-42.5 61.5t-15 81q0 18 4.5 40.5t11 46t14.5 45t14 38.5zM994 1520h-5l-266 -781h526z" />
    <glyph glyph-name="B" unicode="B" horiz-adv-x="1946" 
d="M991 1184q91 0 155.5 17t105.5 48t60 74.5t19 97.5q0 72 -27 117t-73.5 70t-108.5 34t-131 9h-373v-467h373zM1122 348q71 0 125.5 20.5t91 56.5t55.5 85.5t19 107.5q0 66 -30 113t-79 76.5t-110.5 43t-124.5 13.5h-451v-516h504zM918 1999q66 0 144 -1.5t155.5 -9
t148 -24t121.5 -47.5q54 -32 103.5 -76t87.5 -100t60.5 -123.5t22.5 -147.5q0 -68 -16 -127.5t-45 -110t-68.5 -91.5t-87.5 -72q67 -32 123 -79.5t96 -107t62 -128.5t22 -144q0 -76 -20 -150.5t-59.5 -142.5t-98 -126t-135 -100.5t-170.5 -66.5t-205 -24h-719
q-53 0 -99.5 20.5t-81.5 55.5t-55 81.5t-20 99.5v1475q0 55 21 103.5t57 85t84.5 57.5t103.5 21h468z" />
    <glyph glyph-name="C" unicode="C" horiz-adv-x="2004" 
d="M109 1002q0 141 27.5 273.5t82.5 248.5t137 213t190.5 166t243.5 107.5t296 38.5q131 0 241 -24.5t199.5 -65t158 -93.5t115 -111t70.5 -117t26 -110q3 -97 -52 -151.5t-150 -54.5q-50 0 -85.5 15.5t-63 41t-51 57.5t-48.5 66t-55 66t-72 57.5t-98.5 41t-134.5 15.5
q-107 0 -204 -45t-170 -132t-116 -213.5t-43 -289.5q0 -136 30.5 -259t96.5 -216t170 -148t252 -55q90 0 153 27.5t110 68.5t82.5 90t69.5 91t71.5 71.5t88.5 32.5q45 3 82.5 -9t65.5 -35.5t45.5 -56.5t22.5 -73q8 -71 -17 -141.5t-76 -134.5t-125 -118.5t-164.5 -94.5
t-194.5 -62.5t-214 -22.5q-234 0 -418.5 66.5t-312 198t-195 327t-67.5 453.5z" />
    <glyph glyph-name="D" unicode="D" horiz-adv-x="1999" 
d="M183 1731q0 76 18.5 127t52.5 82t82 44t106 13h543q121 0 237 -19.5t219.5 -65.5t190 -121t149.5 -186t98 -261t35 -345q0 -238 -63 -423.5t-183.5 -313.5t-294.5 -195t-396 -67h-535q-58 0 -106 13t-82 44t-52.5 82t-18.5 127v1465zM615 350h386q88 0 157.5 26.5
t122.5 73t90 109.5t60.5 135t34 150t10.5 155q0 148 -29 267.5t-88 203.5t-149 129.5t-211 45.5h-384v-1295z" />
    <glyph glyph-name="E" unicode="E" horiz-adv-x="1737" 
d="M614 848v-492h885q37 0 69.5 -14t56.5 -38t38 -56.5t14 -69.5t-14 -69.5t-38 -56.5t-56.5 -38t-69.5 -14h-1059q-53 0 -99.5 20.5t-81.5 55.5t-55 81.5t-20 99.5v1475q0 55 21 103.5t57 85t84.5 57.5t103.5 21h1042q37 0 70 -14t58 -39t39 -58t14 -70q0 -38 -14 -70.5
t-39 -57t-58 -38.5t-70 -14h-878v-438h809q36 0 68 -14t56 -38t38 -56t14 -68t-14 -68t-38 -56t-56 -38t-68 -14h-809z" />
    <glyph glyph-name="F" unicode="F" horiz-adv-x="1634" 
d="M184 1732q0 55 21 103.5t57 85t84.5 57.5t103.5 21h976q37 0 70 -14t58 -39t39 -58t14 -70q0 -38 -14 -70.5t-39 -57t-58 -38.5t-70 -14h-812v-438h691q36 0 68 -14t56 -38t38 -56t14 -68t-14 -68t-38 -56t-56 -38t-68 -14h-691v-663q0 -45 -17 -82.5t-46 -64.5
t-68 -42.5t-84 -15.5t-84 15.5t-68 42.5t-46 64.5t-17 82.5v1547z" />
    <glyph glyph-name="G" unicode="G" horiz-adv-x="2150" 
d="M1952 123q0 -31 -11 -58.5t-31 -48.5t-47.5 -33t-60.5 -12q-48 0 -79.5 15.5t-52.5 47t-33.5 80t-22.5 114.5q-48 -61 -105.5 -110.5t-128 -84.5t-155 -54t-187.5 -19q-171 0 -307.5 38.5t-241.5 107.5t-180 165.5t-123 212.5t-70.5 247t-22.5 271q0 252 73.5 447
t206.5 327.5t319 201t411 68.5q122 0 225 -23t186 -61.5t146.5 -88t106 -103t64 -106t21.5 -96.5q0 -59 -19 -97.5t-49 -61t-66.5 -31.5t-71.5 -9q-41 0 -69.5 13.5t-51 35.5t-42 50t-42.5 57t-52 57t-71.5 50t-100.5 35.5t-139 13.5q-114 0 -213.5 -40t-173 -125.5
t-115.5 -219.5t-42 -323q0 -147 35 -268t104 -207t172 -133t238 -47q101 0 184.5 31t143.5 88t94.5 137t37.5 178h-288q-35 0 -70.5 8t-64 28.5t-46.5 54.5t-18 85q0 84 44 130.5t128 46.5h544q97 0 138.5 -48.5t41.5 -142.5v-791z" />
    <glyph glyph-name="H" unicode="H" horiz-adv-x="2048" 
d="M614 844v-659q0 -45 -17 -82.5t-46 -64.5t-68 -42.5t-84 -15.5t-84 15.5t-68 42.5t-46 64.5t-17 82.5v1629q0 45 17 82.5t46 64.5t68 42.5t84 15.5t84 -15.5t68 -42.5t46 -64.5t17 -82.5v-610h820v610q0 45 17 82.5t46 64.5t68 42.5t84 15.5t84 -15.5t68 -42.5t46 -64.5
t17 -82.5v-1629q0 -45 -17 -82.5t-46 -64.5t-68 -42.5t-84 -15.5t-84 15.5t-68 42.5t-46 64.5t-17 82.5v659h-820z" />
    <glyph glyph-name="I" unicode="I" horiz-adv-x="852" 
d="M641 185q0 -45 -17 -82.5t-46 -64.5t-68 -42.5t-84 -15.5t-84 15.5t-68 42.5t-46 64.5t-17 82.5v1629q0 45 17 82.5t46 64.5t68 42.5t84 15.5t84 -15.5t68 -42.5t46 -64.5t17 -82.5v-1629z" />
    <glyph glyph-name="J" unicode="J" horiz-adv-x="1528" 
d="M1345 616q0 -152 -45 -273t-131.5 -205t-213 -129t-289.5 -45q-132 0 -231 27t-171 71.5t-119 102t-75 118t-39 119.5t-11 107q0 61 13.5 111t40 85t65.5 54t89 19q59 0 97.5 -21.5t61 -57t31.5 -82t9 -95.5q0 -95 59 -146.5t177 -51.5q54 0 98.5 17t77 53t50 92.5
t17.5 135.5v1175q0 49 15.5 90t44 70t69 45t90.5 16t91 -16t69.5 -45t44 -70t15.5 -90v-1181z" />
    <glyph glyph-name="K" unicode="K" horiz-adv-x="1892" 
d="M183 1798q0 49 15.5 90t44.5 70t70 45t92 16t91.5 -16t69.5 -45t44.5 -70t15.5 -90v-667l727 799q31 34 69 58.5t78.5 33t83 -3t82.5 -48.5q33 -31 47.5 -67.5t12.5 -73.5t-19.5 -73t-47.5 -65l-477 -503l548 -832q29 -44 50 -88.5t24.5 -87.5t-14.5 -83t-67 -76t-98 -45
t-94.5 4t-85.5 45.5t-70 79.5l-506 780l-243 -243v-440q0 -50 -15.5 -90.5t-44.5 -69.5t-69.5 -45t-91.5 -16t-92 16t-70 45t-44.5 69.5t-15.5 90.5v1596z" />
    <glyph glyph-name="L" unicode="L" horiz-adv-x="1585" 
d="M184 1798q0 49 15 90t43.5 70t68.5 45t91 16t91 -16t68 -45t43 -70t15 -90v-1425h738q48 0 89.5 -12t72.5 -35.5t49 -58.5t18 -81q0 -45 -18 -80t-49 -58.5t-72.5 -35.5t-89.5 -12h-914q-59 0 -106.5 13t-81.5 43t-52.5 79.5t-18.5 123.5v1539z" />
    <glyph glyph-name="M" unicode="M" horiz-adv-x="2482" 
d="M185 1778q0 67 22 110t57.5 67.5t81 33.5t92.5 9h97q55 0 96 -11t71.5 -35t53.5 -62.5t41 -94.5l447 -1251h7l442 1251q18 56 40.5 94.5t53 62.5t71.5 35t96 11h91q47 0 92.5 -9t81 -33.5t57.5 -67.5t22 -110v-1582q0 -42 -11.5 -81t-36 -69.5t-64 -48.5t-96.5 -18
q-56 0 -95.5 18t-64.5 48.5t-36 69.5t-11 81v1003l15 224l-45 -201l-412 -1114q-23 -69 -74.5 -99t-125.5 -30q-72 0 -123.5 30t-74.5 99l-412 1116l-45 205l14 -231v-1002q0 -42 -11.5 -81t-36 -69.5t-64 -48.5t-95.5 -18q-57 0 -96.5 18t-64 48.5t-36 69.5t-11.5 81v1582z
" />
    <glyph glyph-name="N" unicode="N" horiz-adv-x="2060" 
d="M183 1751q0 139 66.5 202.5t205.5 63.5q68 0 125 -29.5t93 -91.5l778 -1261h9v1164q0 109 54.5 163.5t152.5 54.5t153.5 -54.5t55.5 -163.5v-1540q0 -133 -60 -205.5t-196 -72.5q-52 0 -88.5 6t-63 20t-47 37t-40.5 57l-774 1226h-8v-1132q0 -109 -54.5 -161.5
t-152.5 -52.5t-153.5 52.5t-55.5 161.5v1556z" />
    <glyph glyph-name="O" unicode="O" horiz-adv-x="2154" 
d="M516 999q0 -82 13.5 -163t42.5 -154.5t73.5 -136.5t106.5 -109.5t142 -73t179 -26.5q101 0 182.5 26.5t144.5 73t108 109.5t74 136.5t42.5 154.5t13.5 163t-13.5 163.5t-42.5 155.5t-74 138t-108 111t-144.5 73.5t-182.5 26.5q-99 0 -179 -26.5t-142 -73.5t-106.5 -111
t-73.5 -138t-42.5 -155.5t-13.5 -163.5zM82 999q0 136 27.5 266.5t82 246.5t137 213.5t193 168.5t248 110.5t303.5 39.5q167 0 306 -39.5t250 -110.5t194.5 -168.5t139 -213.5t83 -246.5t27.5 -266.5t-27.5 -265.5t-83 -244.5t-139 -212t-194.5 -166.5t-250 -108.5t-306 -39
q-166 0 -303.5 39t-248 108.5t-193 166.5t-137 212t-82 244.5t-27.5 265.5z" />
    <glyph glyph-name="P" unicode="P" horiz-adv-x="1843" 
d="M1004 1110q84 -2 146 16.5t102 53t59.5 83.5t19.5 109t-19.5 109t-59.5 84t-102 54t-146 19h-390v-528h390zM184 1795q0 45 17 82.5t46 64.5t68 42.5t84 15.5l691 -1q167 0 293 -42t210 -122.5t126 -197t42 -265.5q0 -147 -42 -261t-126 -191t-210 -116.5t-293 -37.5
h-476v-581q0 -45 -17 -82.5t-46 -64.5t-68 -42.5t-84 -15.5t-84 15.5t-68 42.5t-46 64.5t-17 82.5v1610z" />
    <glyph glyph-name="Q" unicode="Q" horiz-adv-x="2154" 
d="M1120 366q-30 24 -46 55.5t-18 65.5t9 68.5t35 64.5t55 48.5t64.5 23.5t67.5 -3.5t64 -32.5l160 -124q71 95 99 212.5t28 246.5q0 82 -13.5 163.5t-42.5 155.5t-74 138t-108 111t-144.5 73.5t-182.5 26.5q-99 0 -179 -26.5t-142 -73.5t-106.5 -111t-73.5 -138
t-42.5 -155.5t-13.5 -163.5t13.5 -163t42.5 -154.5t73.5 -136.5t106.5 -109.5t142 -73t179 -26.5q25 0 48.5 2t41.5 2zM1532 49q-102 -46 -215.5 -70t-243.5 -24q-166 0 -303.5 39t-248 108.5t-193 166t-137 211.5t-82 245t-27.5 266q0 137 27.5 268t82 247t137 213.5
t193 167.5t248 109.5t303.5 39.5q167 0 306 -39.5t250 -109.5t194.5 -167.5t139 -213.5t83 -247t27.5 -268q0 -98 -14.5 -194t-44 -186t-73.5 -172t-102 -152l124 -102q30 -24 46 -55.5t18 -65.5t-9 -68.5t-35 -64.5t-55 -48.5t-64.5 -23.5t-67.5 3.5t-64 32.5z" />
    <glyph glyph-name="R" unicode="R" horiz-adv-x="1946" 
d="M188 1735q0 75 18.5 125.5t52 81.5t80.5 44t105 13h730q130 0 229.5 -23t173 -63t123 -93.5t79.5 -114.5t42.5 -126.5t12.5 -129.5q0 -81 -22.5 -158.5t-65 -142t-104 -111t-139.5 -65.5v-6q84 -13 137.5 -54t84 -102.5t41 -140.5t8.5 -167q-2 -63 6 -113.5t18.5 -91.5
t19 -75t8.5 -65q0 -39 -18 -72t-47 -56t-66 -36t-75 -13q-60 0 -102.5 18t-71.5 47t-45.5 65t-25.5 71.5t-11.5 67t-2.5 51.5q0 129 -13.5 221.5t-47.5 151t-92.5 86t-148.5 27.5h-435v-581q0 -50 -15 -91.5t-43 -71t-68 -46t-90 -16.5t-91 16.5t-69.5 46t-44 71t-15.5 91.5
v1530zM624 1118h441q62 0 121.5 10.5t106.5 39.5t75.5 81t28.5 136q0 79 -22.5 130.5t-64.5 81.5t-101 42t-131 12h-454v-533z" />
    <glyph glyph-name="S" unicode="S" horiz-adv-x="1843" 
d="M1243 1158q153 -35 251.5 -96.5t156.5 -138.5t80.5 -164.5t22.5 -175.5q0 -135 -50 -250.5t-150.5 -200t-251.5 -132t-352 -47.5q-141 0 -257 22.5t-207 60.5t-158 88.5t-110.5 107t-65 115t-21.5 112.5q0 41 14 75.5t39 59.5t59 39t75 14q60 0 99 -26.5t71.5 -67
t66.5 -87t84 -87t124 -67t187 -26.5q86 0 153 22.5t112.5 59.5t69 85t23.5 98q0 30 -8.5 61t-29.5 59.5t-58 52t-94 38.5l-504 131q-101 26 -175.5 62t-128 78.5t-87 90.5t-53 99.5t-27 105t-7.5 107.5q0 111 31.5 199.5t87 156.5t130.5 116t161.5 79t181 45.5t188.5 14.5
q87 0 178 -16.5t176.5 -47t160.5 -73t130 -94.5t85.5 -111.5t27.5 -124.5q-2 -42 -19 -75.5t-44 -57t-63 -35.5t-77 -12q-52 0 -86 22t-64.5 55t-63 71.5t-80.5 71.5t-117.5 55t-173.5 22q-77 0 -137 -17.5t-100.5 -48.5t-61.5 -74.5t-21 -95.5t27.5 -87.5t71.5 -60
t98 -40.5t107 -28z" />
    <glyph glyph-name="T" unicode="T" horiz-adv-x="1640" 
d="M598 1618h-403q-39 0 -72 15t-57 40.5t-37.5 60.5t-13.5 74t13.5 74t37.5 61t57 41t72 15h1250q39 0 72 -15t57 -41t37.5 -61t13.5 -74t-13.5 -74t-37.5 -60.5t-57 -40.5t-72 -15h-413v-1431q0 -45 -17 -83t-46.5 -65.5t-69 -43t-84.5 -15.5t-84.5 15.5t-69 43
t-46.5 65.5t-17 83v1431z" />
    <glyph glyph-name="U" unicode="U" horiz-adv-x="2073" 
d="M1884 750q0 -197 -55.5 -344t-162 -244.5t-261 -146t-352.5 -48.5q-206 0 -367 45.5t-271.5 141.5t-168.5 244t-58 352v1061q0 45 16.5 83t46 65.5t68.5 43t84 15.5t84 -15.5t68.5 -43t46 -65.5t16.5 -83v-1061q0 -206 110 -314t325 -108q199 0 300 108t101 314v1061
q0 45 16.5 83t46 65.5t68.5 43t84 15.5t84 -15.5t68.5 -43t46 -65.5t16.5 -83v-1061z" />
    <glyph glyph-name="V" unicode="V" horiz-adv-x="1782" 
d="M1153 130q-17 -48 -42 -78t-58.5 -47t-76 -23t-93.5 -6q-52 0 -94 6t-75.5 23t-58.5 47t-42 78l-546 1560q-23 62 -24.5 121t21 104.5t71.5 73.5t129 28q89 0 141.5 -47.5t83.5 -146.5l399 -1350h6l415 1350q31 100 81 147t127 47q75 0 124.5 -26t74 -70t24 -104
t-25.5 -127z" />
    <glyph glyph-name="W" unicode="W" horiz-adv-x="2536" 
d="M2092 189q-15 -57 -36 -97t-52.5 -65t-75 -36.5t-104.5 -11.5q-63 0 -106.5 13.5t-74 40.5t-50 68t-33.5 97l-289 1189h-6l-288 -1189q-14 -56 -33.5 -97t-50 -68t-74.5 -40.5t-107 -13.5q-61 0 -104.5 11.5t-74.5 36.5t-52 65t-36 97l-381 1501q-8 31 -15 63t-7 64
q0 51 19 88.5t49.5 62t68.5 37t77 12.5q85 0 136 -41.5t72 -139.5l261 -1284h6l295 1272q9 40 26 75.5t44.5 61.5t68.5 41t100 15q60 0 102 -13.5t70.5 -38.5t46 -61t28.5 -81l299 -1271h5l265 1284q20 98 70 139.5t130 41.5q38 0 76 -12.5t68.5 -37t49.5 -62t19 -88.5
q0 -32 -7 -64t-15 -63z" />
    <glyph glyph-name="X" unicode="X" horiz-adv-x="1621" 
d="M555 1027l-464 652q-36 55 -41 115.5t18.5 111t73.5 83.5t124 33q39 0 69 -10.5t52 -26.5t37.5 -35t25.5 -36l362 -571l361 567q17 27 34 47.5t37.5 34t47 20t62.5 6.5q66 0 115.5 -29t75.5 -75t23.5 -103t-41.5 -112l-469 -672l469 -691q31 -47 46 -91.5t11 -85
t-27.5 -76t-69.5 -64.5q-45 -28 -90.5 -36.5t-87.5 0.5t-78 35.5t-61 68.5l-369 602l-351 -581q-30 -48 -70.5 -79t-85 -42.5t-90.5 -3t-86 38.5t-58 69.5t-18 83t15 87t41 82.5z" />
    <glyph glyph-name="Y" unicode="Y" horiz-adv-x="1729" 
d="M643 799l-563 901q-34 55 -35.5 112t25 103t77 75t119.5 29q40 0 69.5 -8t53 -24t42 -40.5t35.5 -56.5l406 -711l404 711q19 36 38.5 61t42 40t49.5 21.5t61 6.5q64 0 114 -28t76.5 -73.5t26 -102.5t-35.5 -115l-562 -901v-603q0 -50 -15.5 -90.5t-44.5 -69.5t-70 -45
t-92 -16t-91.5 16t-69.5 45t-44.5 69.5t-15.5 90.5v603z" />
    <glyph glyph-name="Z" unicode="Z" horiz-adv-x="1805" 
d="M1154 1625h-793q-48 0 -89.5 12t-72.5 35.5t-49 58.5t-18 81q0 45 18 80t49 58.5t72.5 35.5t89.5 12h1167q42 0 79.5 -10t65.5 -33.5t44 -62.5t16 -96q0 -42 -16 -83.5t-46 -76.5l-1038 -1263h884q48 0 89.5 -12t73 -35.5t49.5 -58.5t18 -81q0 -45 -18 -80t-49.5 -58.5
t-73 -35.5t-89.5 -12h-1202q-61 0 -108.5 11t-80.5 36.5t-50 67.5t-17 104q0 53 21 93t52 77z" />
    <glyph glyph-name="bracketleft" unicode="[" horiz-adv-x="893" 
d="M570 -313h154q39 0 72 -8.5t56.5 -27.5t36.5 -49t13 -72q0 -43 -13 -73t-36.5 -48.5t-56.5 -27t-72 -8.5h-303q-45 0 -87.5 10t-75 37t-52.5 74.5t-20 122.5v2271q0 75 20 122.5t52.5 74.5t75 37t87.5 10h303q39 0 72 -8.5t56.5 -27.5t36.5 -48.5t13 -72.5t-13 -73
t-36.5 -48.5t-56.5 -27t-72 -8.5h-154v-2131z" />
    <glyph glyph-name="backslash" unicode="\" horiz-adv-x="1114" 
d="M60 1841q-9 23 -16.5 46.5t-7.5 46.5q0 34 14.5 60.5t37 45t49.5 28t53 9.5q43 0 71.5 -11.5t46.5 -29t28.5 -37.5t17.5 -37l700 -1771q9 -23 16.5 -46.5t7.5 -46.5q0 -34 -14.5 -60.5t-37 -45t-50 -28.5t-53.5 -10q-44 0 -72 11.5t-46 29t-28 38t-17 37.5z" />
    <glyph glyph-name="bracketright" unicode="]" horiz-adv-x="893" 
d="M320 1818h-154q-39 0 -72 8.5t-56.5 27t-36.5 48.5t-13 73t13 72.5t36.5 48.5t56.5 27.5t72 8.5h303q45 0 87.5 -10t75 -37t52.5 -74.5t20 -122.5v-2271q0 -75 -20 -122.5t-52.5 -74.5t-75 -37t-87.5 -10h-303q-39 0 -72 8.5t-56.5 27t-36.5 48.5t-13 73q0 42 13 72
t36.5 49t56.5 27.5t72 8.5h154v2131z" />
    <glyph glyph-name="asciicircum" unicode="^" horiz-adv-x="1851" 
d="M926 1574l-365 -666q-19 -35 -39.5 -57t-44.5 -34.5t-51 -17t-60 -4.5q-45 0 -73 10t-44 25t-22 33t-6 34q0 30 8.5 59.5t28.5 65.5l481 872q20 37 41.5 61t44.5 37.5t48 18.5t53 5t53 -5t48 -18.5t44.5 -37.5t41.5 -61l479 -873q20 -36 28.5 -65.5t8.5 -59.5
q0 -16 -6 -34t-22 -33t-44 -25t-73 -10q-33 0 -60 4.5t-51 17t-44.5 34.5t-39.5 57z" />
    <glyph glyph-name="underscore" unicode="_" horiz-adv-x="1405" 
d="M127 -406q-29 0 -52 11t-40 29.5t-26 43.5t-9 54q0 28 9 53t26 44t40 29.5t52 10.5h1151q28 0 51.5 -10.5t40.5 -29.5t26 -44t9 -53q0 -29 -9 -54t-26 -43.5t-40.5 -29.5t-51.5 -11h-1151z" />
    <glyph glyph-name="grave" unicode="`" horiz-adv-x="1004" 
d="M725 1783q35 -45 41 -93t-11.5 -85.5t-56 -57t-92.5 -6.5q-10 3 -21 6.5t-24 11.5t-29 22t-37 37l-199 218q-26 27 -44 57.5t-22.5 62t7.5 63.5t47 63q36 32 71.5 39t70 -5.5t67.5 -41.5t63 -68z" />
    <glyph glyph-name="a" unicode="a" horiz-adv-x="1556" 
d="M1415 363q0 -43 7 -71.5t17.5 -48.5t23 -33.5t23.5 -26.5t19.5 -27.5t10.5 -35.5q4 -38 -10 -66.5t-39.5 -48t-59 -29.5t-68.5 -11q-74 -2 -127.5 13.5t-89 46t-53.5 75t-20 100.5q-57 -65 -119 -110t-129 -73t-139 -40t-149 -12q-83 0 -162.5 28.5t-141.5 82t-99.5 130
t-37.5 172.5q0 126 43 209.5t117.5 136.5t173.5 80t211 41l239 27q35 4 65.5 12t53.5 24t36.5 43t13.5 71t-20 75.5t-54 52t-79 30t-94 9.5q-72 0 -123 -16.5t-88 -41t-65 -53.5t-54 -53.5t-54.5 -41t-67.5 -16.5q-37 0 -67.5 12.5t-52.5 34t-34 49.5t-12 59
q0 60 40.5 124.5t119 118.5t194.5 88.5t267 34.5q141 0 257.5 -24t200 -74.5t130 -129.5t46.5 -188v-709zM1025 683q-16 -15 -38 -26t-45.5 -18t-46 -11.5t-39.5 -7.5l-142 -23q-61 -9 -108 -24.5t-78.5 -39t-48 -56.5t-16.5 -79q0 -35 15 -65t43 -53t68.5 -36t90.5 -13
q80 0 144 25t108.5 66t68.5 94t24 109v158z" />
    <glyph glyph-name="b" unicode="b" horiz-adv-x="1700" 
d="M143 1829q0 100 53.5 151t148.5 51q97 0 149.5 -51t52.5 -151v-548h7q62 98 174 151t253 53q111 0 202 -28.5t162.5 -80t124.5 -121.5t88 -153.5t52 -177t17 -190.5q0 -196 -53.5 -340.5t-144 -240t-209.5 -142t-251 -46.5q-77 0 -145.5 15.5t-126 47t-101 79.5
t-69.5 112h-5v-64q0 -93 -48 -141.5t-141 -48.5q-98 0 -144 48.5t-46 141.5v1674zM1218 721q0 48 -6.5 100t-22 102.5t-41.5 96t-64 79.5t-89.5 54.5t-119.5 20.5q-98 1 -165.5 -40t-109.5 -106.5t-61 -146.5t-19 -160q0 -87 20.5 -167.5t64 -142t110.5 -98.5t160 -37
q85 2 149.5 38t107.5 96.5t64.5 140.5t21.5 170z" />
    <glyph glyph-name="c" unicode="c" horiz-adv-x="1488" 
d="M66 697q0 175 48.5 321t143 251t235 163.5t325.5 58.5q126 0 233 -33t185 -87t122.5 -123t44.5 -140q0 -45 -15 -78.5t-41 -56t-60 -33.5t-73 -11q-31 0 -54.5 9t-41.5 23t-32.5 32.5t-27.5 37.5q-17 24 -36 48t-47.5 43.5t-69 31.5t-98.5 12t-117.5 -22t-108 -76
t-79 -144.5t-30.5 -226.5q0 -94 22 -170t64 -129.5t104 -82.5t142 -29q53 0 92 13t67.5 33.5t49 45.5t38.5 50q16 23 32.5 44t37.5 37.5t48 26.5t63 10q39 0 71 -13.5t55 -36t35.5 -51.5t12.5 -60q0 -44 -16.5 -93t-50.5 -96t-85 -89.5t-119 -74.5t-154 -51t-189 -19
q-185 0 -321.5 55t-226.5 153t-134 233t-44 294z" />
    <glyph glyph-name="d" unicode="d" horiz-adv-x="1700" 
d="M1556 155q0 -93 -46 -141.5t-144 -48.5q-93 0 -141 48.5t-48 141.5v64h-5q-26 -64 -69.5 -112t-101 -79.5t-126.5 -47t-145 -15.5q-132 0 -251 46.5t-209.5 142t-144 240t-53.5 340.5q0 97 17 190.5t52 177t88 153.5t124.5 121.5t162.5 80t202 28.5q141 0 253 -53
t174 -151h7v548q0 100 52.5 151t149.5 51q95 0 148.5 -51t53.5 -151v-1674zM481 721q0 -90 21.5 -170t64.5 -140.5t107 -96.5t150 -38q93 0 160 37t110.5 98.5t64 142t20.5 167.5q0 79 -19 160t-61 146.5t-110 106.5t-165 40q-68 0 -119.5 -20.5t-89.5 -54.5t-64 -79.5
t-41.5 -96t-22 -102.5t-6.5 -100z" />
    <glyph glyph-name="e" unicode="e" horiz-adv-x="1602" 
d="M1151 880q-8 70 -36.5 129t-72 102t-100 67.5t-122.5 24.5q-73 0 -132 -23t-103 -65t-74.5 -101.5t-46.5 -133.5h687zM464 626q3 -77 29 -141t72.5 -110.5t112 -72.5t148.5 -26q74 0 125 15t88.5 37t64.5 48t53 48t54 37t68 15q36 0 65.5 -14t50.5 -36.5t33 -51t12 -56.5
q0 -61 -29 -111.5t-77.5 -90.5t-112 -69.5t-131.5 -49t-136.5 -29t-127.5 -9.5q-137 0 -246 30t-192.5 82.5t-143.5 123.5t-98 152.5t-56 170.5t-18 178q0 177 50.5 323t145.5 249.5t232.5 160.5t311.5 57q113 0 209.5 -26t175 -72t139.5 -109t102 -137t62 -156t21 -165
q0 -52 -8.5 -89t-28 -60.5t-53 -34.5t-82.5 -11h-885z" />
    <glyph glyph-name="f" unicode="f" horiz-adv-x="877" 
d="M215 1191h-49q-84 0 -120.5 32.5t-36.5 98.5t36.5 99t120.5 33h49v183q0 95 35.5 167.5t95.5 121.5t138.5 74t164.5 25q54 0 101.5 -11t82.5 -34.5t55.5 -60t20.5 -86.5q0 -28 -10 -53t-27.5 -44t-40.5 -30t-49 -11q-23 0 -43.5 4.5t-43.5 4.5q-42 0 -61 -26t-19 -68
v-156h75q88 0 133.5 -30t45.5 -102t-45.5 -101.5t-133.5 -29.5h-75v-1026q0 -50 -14.5 -87t-41 -62.5t-63 -38t-81.5 -12.5t-81.5 12.5t-63 38t-41 62.5t-14.5 87v1026z" />
    <glyph glyph-name="g" unicode="g" horiz-adv-x="1667" 
d="M480 713q0 -71 18 -142.5t57.5 -128.5t101.5 -92.5t150 -35.5q68 0 127 24t102.5 74.5t68.5 129t25 188.5q0 113 -20.5 194.5t-59.5 134.5t-95.5 78.5t-128.5 25.5q-99 0 -165 -34.5t-106.5 -94.5t-57.5 -142.5t-17 -178.5zM1522 90q0 -187 -54 -324t-151 -227
t-231 -133.5t-294 -43.5q-78 0 -154 11.5t-144.5 33t-126.5 52t-100.5 68.5t-66.5 83t-24 95q0 38 13.5 70t36.5 55.5t53.5 36.5t64.5 13q42 0 75 -15.5t62 -39.5t57.5 -51t63 -51t77 -39.5t100.5 -15.5q93 0 159.5 25t109 79.5t62.5 140.5t20 208v86h-5q-28 -41 -70.5 -77
t-94.5 -63t-111.5 -42.5t-120.5 -15.5q-162 0 -285 50.5t-205.5 141.5t-124.5 218.5t-42 280.5q0 201 52 349t140 245.5t205 145t246 47.5q75 0 141 -17t121.5 -49t98.5 -78t71 -103h7v52q0 95 46.5 145t137.5 50q95 0 140 -50t45 -145v-1202z" />
    <glyph glyph-name="h" unicode="h" horiz-adv-x="1647" 
d="M1507 161q0 -42 -16.5 -75.5t-44.5 -57t-64.5 -36t-75.5 -12.5t-75.5 12.5t-64 36t-44 57t-16.5 75.5v658q0 181 -58 271t-196 90q-80 0 -138 -24t-95.5 -74.5t-55.5 -129.5t-18 -190v-601q0 -43 -17 -76.5t-45 -57t-64.5 -35.5t-75.5 -12t-75.5 13t-64 36.5t-44 57
t-16.5 74.5v1687q0 39 15 71t40.5 54t60.5 34t74 12t74 -12t61 -34t41 -54t15 -71v-558h8q48 61 100 101t107.5 63t114.5 32t121 9q160 0 263 -43.5t163 -122.5t83 -190t23 -246v-732z" />
    <glyph glyph-name="i" unicode="i" horiz-adv-x="688" 
d="M545 171q0 -42 -16 -77t-43 -60.5t-63.5 -39.5t-78.5 -14t-78.5 14t-63.5 39.5t-43 60.5t-16 77v1123q0 42 16 75.5t43 57t63.5 36t78.5 12.5t78.5 -12.5t63.5 -36t43 -57t16 -75.5v-1123zM143 1814q0 42 16 78.5t43 63.5t63.5 43t78.5 16t78.5 -16t63.5 -43t43 -63.5
t16 -78.5t-16 -78.5t-43 -63.5t-63.5 -43t-78.5 -16t-78.5 16t-63.5 43t-43 63.5t-16 78.5z" />
    <glyph glyph-name="j" unicode="j" horiz-adv-x="729" 
d="M187 1279q0 40 9 76.5t32 64t61.5 44t97.5 16.5q58 0 97 -16.5t61.5 -44t32 -64t9.5 -76.5v-1457q0 -108 -22 -188.5t-70.5 -133t-126 -78.5t-189.5 -26q-116 0 -170.5 43t-54.5 130q0 76 34 108t97 32h45q28 0 42.5 21t14.5 50v1499zM183 1814q0 42 16 78.5t43 63.5
t63.5 43t78.5 16t78.5 -16t63.5 -43t43 -63.5t16 -78.5t-16 -78.5t-43 -63.5t-63.5 -43t-78.5 -16t-78.5 16t-63.5 43t-43 63.5t-16 78.5z" />
    <glyph glyph-name="k" unicode="k" horiz-adv-x="1470" 
d="M143 1827q0 49 14 87t40 63t62.5 38t81.5 13q90 0 144.5 -51t54.5 -150v-914l441 496q30 32 68.5 54.5t83.5 22.5q34 0 67.5 -14t60.5 -38.5t43.5 -58t16.5 -71.5q0 -27 -4.5 -45.5t-12.5 -33t-19 -27t-24 -26.5l-294 -312l413 -560q11 -14 26 -47t15 -83
q0 -38 -14.5 -73.5t-39.5 -62.5t-59.5 -43t-74.5 -16q-36 0 -64.5 8.5t-50 22t-37.5 30t-27 32.5l-375 537l-139 -154v-276q0 -98 -54.5 -149t-144.5 -51q-45 0 -81.5 13t-62.5 38t-40 62.5t-14 86.5v1652z" />
    <glyph glyph-name="l" unicode="l" horiz-adv-x="725" 
d="M564 171q0 -42 -16 -77t-43 -60.5t-63.5 -39.5t-78.5 -14t-78.5 14t-63.5 39.5t-43 60.5t-16 77v1668q0 42 16 75.5t43 57t63.5 36t78.5 12.5t78.5 -12.5t63.5 -36t43 -57t16 -75.5v-1668z" />
    <glyph glyph-name="m" unicode="m" horiz-adv-x="2507" 
d="M142 1282q0 91 49.5 146t137.5 55t138 -55t50 -146v-52h6q78 120 202 186.5t276 66.5q51 0 108 -13t110 -42.5t98.5 -78t72.5 -119.5q42 59 89 106t102.5 79.5t121.5 50t147 17.5q103 0 196 -25.5t163 -83t111.5 -150.5t41.5 -228v-817q0 -40 -9.5 -76.5t-32 -64
t-61 -43.5t-96.5 -16t-96.5 16t-61 43.5t-31.5 64t-9 76.5v721q0 54 -15 101.5t-44.5 83.5t-73.5 57t-102 21q-57 0 -108 -24t-89 -66.5t-60.5 -101.5t-22.5 -129v-663q0 -40 -9.5 -76.5t-32 -64t-61 -43.5t-96.5 -16t-96.5 16t-61 43.5t-31.5 64t-9 76.5v721
q0 54 -13.5 101.5t-41.5 83.5t-70.5 57t-100.5 21q-57 0 -109 -24t-92 -66.5t-63.5 -101.5t-23.5 -129v-663q0 -40 -9.5 -76.5t-32 -64t-61 -43.5t-96.5 -16t-96.5 16t-61 43.5t-31.5 64t-9 76.5v1103z" />
    <glyph glyph-name="n" unicode="n" horiz-adv-x="1651" 
d="M144 1295q0 90 42.5 144.5t136.5 54.5t137 -54.5t43 -144.5v-51q44 55 95 101t111.5 79t132 51.5t156.5 18.5q60 0 121 -11t117.5 -35.5t106 -64t86 -97.5t57.5 -136t21 -178v-794q0 -40 -9 -76t-31.5 -63t-61 -43t-96.5 -16t-96.5 16t-61 43t-32 63t-9.5 76v715
q0 60 -16.5 110.5t-49 87t-81 57t-112.5 20.5q-52 0 -107 -21t-100 -61t-74 -98.5t-29 -132.5v-677q0 -40 -9.5 -76t-32 -63t-61 -43t-96.5 -16t-96.5 16t-61 43t-31.5 63t-9 76v1117z" />
    <glyph glyph-name="o" unicode="o" horiz-adv-x="1647" 
d="M74 725q0 174 53 315t151 241.5t236.5 155t308.5 54.5q172 0 311.5 -54.5t237.5 -155t151.5 -241.5t53.5 -315t-53.5 -315t-151.5 -241.5t-237.5 -155t-311.5 -54.5q-170 0 -308.5 54.5t-236.5 155t-151 241.5t-53 315zM475 725q0 -87 16.5 -169t56.5 -145.5t107 -102
t168 -38.5q103 0 171.5 38.5t110 102t58.5 145.5t17 169t-17 169t-58.5 145.5t-110 102t-171.5 38.5q-101 0 -168 -38.5t-107 -102t-56.5 -145.5t-16.5 -169z" />
    <glyph glyph-name="p" unicode="p" horiz-adv-x="1700" 
d="M143 1298q0 93 46 141.5t144 48.5q93 0 141 -48.5t48 -141.5v-64h5q26 64 69.5 112t101 79.5t126 47t145.5 15.5q132 0 251 -46.5t209.5 -142t144 -240t53.5 -340.5q0 -97 -17 -190.5t-52 -177t-88 -153.5t-124.5 -121.5t-162.5 -80t-202 -28.5q-141 0 -253 53t-174 151
h-7v-548q0 -100 -52.5 -151t-149.5 -51q-95 0 -148.5 51t-53.5 151v1674zM1218 732q0 90 -21.5 170t-64.5 140.5t-107.5 96.5t-149.5 38q-93 0 -160 -37t-110.5 -98.5t-64 -142t-20.5 -167.5q0 -79 19 -160t61 -146.5t109.5 -106.5t165.5 -40q68 0 119.5 20.5t89.5 54.5
t64 79.5t41.5 96t22 102.5t6.5 100z" />
    <glyph glyph-name="q" unicode="q" horiz-adv-x="1700" 
d="M1557 -376q0 -100 -53.5 -151t-148.5 -51q-97 0 -149.5 51t-52.5 151v548h-7q-62 -98 -174 -151t-253 -53q-111 0 -202 28.5t-162.5 80t-124.5 121.5t-88 153.5t-52 177t-17 190.5q0 196 53.5 340.5t144 240t209.5 142t251 46.5q76 0 145 -15.5t126.5 -47t101 -79.5
t69.5 -112h5v64q0 93 48 141.5t141 48.5q98 0 144 -48.5t46 -141.5v-1674zM482 732q0 -48 6.5 -100t22 -102.5t41.5 -96t64 -79.5t89.5 -54.5t119.5 -20.5q97 -1 165 40t110 106.5t61 146.5t19 160q0 87 -20.5 167.5t-64 142t-110.5 98.5t-160 37q-86 -2 -150 -38
t-107 -96.5t-64.5 -140.5t-21.5 -170z" />
    <glyph glyph-name="r" unicode="r" horiz-adv-x="1049" 
d="M144 1288q0 45 14 79.5t38 58t56.5 35.5t70.5 12t71 -12t57 -35.5t38 -58t14 -79.5v-142h5q17 62 43.5 121t66 104.5t93.5 73.5t126 28q47 0 87 -14.5t69 -40.5t45.5 -61t16.5 -77q0 -55 -17 -93t-44.5 -61.5t-62.5 -34t-72 -10.5h-47q-60 0 -110 -22.5t-85.5 -74
t-55.5 -136t-20 -207.5v-468q0 -40 -9.5 -76t-32 -63t-61 -43t-96.5 -16t-96.5 16t-61 43t-31.5 63t-9 76v1115z" />
    <glyph glyph-name="s" unicode="s" horiz-adv-x="1479" 
d="M100 1037q0 82 25.5 147t70 114.5t104 85t127.5 58t140.5 33t143.5 10.5q77 0 153.5 -10t145.5 -28.5t128 -45t102 -60.5t67.5 -74.5t24.5 -86.5q0 -35 -11.5 -67t-33.5 -56t-53 -38.5t-71 -14.5t-70.5 13.5t-58 34t-54.5 44.5t-60.5 44.5t-76.5 34t-101 13.5
q-54 0 -97 -7.5t-74 -22.5t-47.5 -38.5t-16.5 -55.5q0 -35 16.5 -58t45.5 -38.5t68.5 -26t86.5 -20.5l171 -39q58 -13 118 -30t116 -41.5t106 -57t87 -76t58.5 -99t21.5 -125.5q0 -82 -25 -149t-69 -120t-104 -92.5t-130 -65.5t-146 -38.5t-153 -12.5q-138 0 -260.5 28.5
t-215 77.5t-146 114.5t-53.5 139.5q0 33 9.5 63.5t30 53.5t51.5 37t74 14q44 0 78 -18.5t65.5 -46t64 -59.5t72.5 -59.5t91.5 -46t121.5 -18.5q55 0 98.5 11.5t74.5 31t47.5 46t16.5 57.5q0 38 -16 65t-46.5 47t-74 34.5t-97.5 28.5l-240 57q-89 22 -165.5 49.5t-133.5 72.5
t-89.5 113t-32.5 169z" />
    <glyph glyph-name="t" unicode="t" horiz-adv-x="918" 
d="M227 1192h-68q-84 0 -121 32.5t-37 98.5t37 98.5t121 32.5h68v250q0 97 54.5 147.5t144.5 50.5q89 0 143.5 -50.5t54.5 -147.5v-250h120q88 0 133.5 -29.5t45.5 -101.5t-45.5 -101.5t-133.5 -29.5h-120v-815q0 -92 104 -92h57q66 0 102 -35t36 -99q0 -86 -72 -131
t-216 -45q-108 0 -185.5 22t-127 66.5t-72.5 110.5t-23 154v864z" />
    <glyph glyph-name="u" unicode="u" horiz-adv-x="1675" 
d="M1519 159q0 -90 -42.5 -144.5t-136.5 -54.5t-137 54.5t-43 144.5v51q-44 -55 -95 -101t-111.5 -79t-132 -51.5t-156.5 -18.5q-60 0 -121 11t-117.5 35t-106 64t-86 98t-57.5 135.5t-21 178.5v794q0 40 9 76t31.5 63t61 43t96.5 16t96.5 -16t62 -43t33 -63t9.5 -76v-715
q0 -60 16 -110.5t48.5 -87t80.5 -57t112 -20.5q52 0 107 21t100 61t73.5 98.5t28.5 132.5v677q0 40 9.5 76t32.5 63t61.5 43t96.5 16t96.5 -16t61 -43t31.5 -63t9 -76v-1117z" />
    <glyph glyph-name="v" unicode="v" horiz-adv-x="1373" 
d="M44 1190q-21 60 -17 112.5t28 91.5t66 61.5t98 22.5t92.5 -20t59 -47.5t33 -55.5t14.5 -43l266 -908h6l266 908q4 15 14.5 43t33 55.5t59 47.5t92.5 20t98.5 -23t66.5 -62.5t27 -92.5t-18 -113l-374 -1054q-14 -40 -30 -70t-44 -50t-73.5 -30t-120.5 -10t-120.5 10.5
t-73.5 31t-43.5 50.5t-29.5 70z" />
    <glyph glyph-name="w" unicode="w" horiz-adv-x="2098" 
d="M45 1180q-17 55 -15.5 107t20.5 93t56.5 67t92.5 31q49 4 85 -9.5t62 -40t42.5 -63.5t26.5 -80l210 -851h5l172 790q13 58 28.5 105.5t42.5 80.5t69 51t107 17q70 -1 114.5 -18.5t71.5 -50t42.5 -79.5t28.5 -106l176 -790h5l196 851q9 43 23.5 79.5t39 63t60 40
t86.5 10.5q59 -4 98.5 -29.5t60 -65t22.5 -89t-14 -100.5l-305 -1004q-21 -71 -42 -113t-49.5 -65t-68.5 -30t-99 -7q-62 0 -103.5 12t-69 38.5t-44.5 68t-32 100.5l-194 778h-6l-193 -784q-15 -59 -32.5 -100t-45 -66t-69 -36t-103.5 -11q-59 0 -99 7t-68 30t-49 65
t-42 113z" />
    <glyph glyph-name="x" unicode="x" horiz-adv-x="1282" 
d="M378 54q-21 -31 -60.5 -55t-94.5 -24q-36 0 -70.5 13.5t-62 38t-44 58.5t-16.5 75q0 26 14 57.5t40 69.5l305 449l-311 442q-32 43 -36.5 95.5t17 98.5t69 77t121.5 31q48 0 87 -22t74 -79l248 -379l223 363q22 38 44.5 61t45 35.5t45.5 16.5t47 4q34 0 66.5 -14
t57.5 -38t40 -55t15 -64q0 -44 -11 -75.5t-29 -58.5l-297 -439l308 -457q16 -23 27 -49.5t11 -69.5q0 -36 -13.5 -69.5t-39.5 -59t-63 -41t-85 -15.5q-31 0 -56 9t-47 25.5t-41.5 41t-38.5 54.5l-228 365z" />
    <glyph glyph-name="y" unicode="y" horiz-adv-x="1380" 
d="M707 483l254 819q10 38 26 70.5t39 56t53.5 37t71.5 13.5q78 0 122 -28t62.5 -70t15.5 -92t-19 -94l-484 -1349q-36 -102 -76.5 -179t-93 -129t-121.5 -78.5t-163 -26.5q-66 0 -113.5 15t-78 40.5t-45 58t-14.5 68.5q0 40 13.5 70t38 50t58 30.5t73.5 10.5h40q19 0 39 2
t38.5 14t34.5 37.5t27 71.5l26 99l-456 1104q-12 36 -21.5 62.5t-15.5 48t-9 39t-3 35.5q0 40 15 75t41.5 60.5t61.5 40t75 14.5q80 0 132.5 -41t71.5 -109z" />
    <glyph glyph-name="z" unicode="z" horiz-adv-x="1462" 
d="M855 1142h-574q-27 0 -55.5 8t-52 26.5t-38 48.5t-14.5 73t14.5 72.5t38 48t52 26.5t55.5 8h944q80 0 121.5 -48.5t41.5 -126.5q0 -32 -16.5 -67t-45.5 -66l-735 -835h653q28 0 56.5 -8t51.5 -26.5t38 -48t15 -72.5t-15 -72.5t-38 -48t-51.5 -26.5t-56.5 -8h-1012
q-44 0 -77 13t-55 35t-33 49.5t-11 57.5q0 43 12.5 79t38.5 65z" />
    <glyph glyph-name="braceleft" unicode="{" horiz-adv-x="1049" 
d="M715 1047q0 -65 -15.5 -111.5t-41 -78t-58 -50.5t-66 -29.5t-66 -15t-57.5 -6.5v-8q25 -2 57.5 -6t66 -14.5t66 -29.5t58 -50.5t41 -78t15.5 -112.5v-650q0 -45 10 -76.5t28 -51t43 -28.5t56 -9h71q57 0 94 -36t37 -102q0 -65 -37 -98t-94 -33h-214q-188 0 -282 92.5
t-94 291.5v662q0 66 -13 105t-34 58.5t-47.5 25t-53.5 5.5q-36 0 -62.5 12t-44 31.5t-25.5 45t-8 51.5t8 50.5t25.5 44t44 31.5t62.5 12q27 0 53.5 5.5t47.5 25t34 58.5t13 105v661q0 199 94 291.5t282 92.5h214q57 0 94 -33t37 -97q0 -67 -37 -103t-94 -36h-71
q-31 0 -56 -9t-43 -28.5t-28 -51t-10 -76.5v-649z" />
    <glyph glyph-name="bar" unicode="|" horiz-adv-x="696" 
d="M164 2046q0 38 14.5 70t39.5 55t58.5 36t71.5 13t71.5 -13t58.5 -36t39.5 -55t14.5 -70v-2482q0 -38 -14.5 -70t-39.5 -55t-58.5 -36t-71.5 -13t-71.5 13t-58.5 36t-39.5 55t-14.5 70v2482z" />
    <glyph glyph-name="braceright" unicode="}" horiz-adv-x="1049" 
d="M334 1696q0 45 -10 76.5t-28 51t-43 28.5t-56 9h-71q-57 0 -94 36t-37 103q0 64 37 97t94 33h214q188 0 282 -92.5t94 -291.5v-661q0 -66 13 -105t34 -58.5t47.5 -25t53.5 -5.5q36 0 62.5 -12t44 -31.5t25.5 -44t8 -50.5t-8 -51.5t-25.5 -45t-44 -31.5t-62.5 -12
q-27 0 -53.5 -5.5t-47.5 -25t-34 -58.5t-13 -105v-662q0 -199 -94 -291.5t-282 -92.5h-214q-57 0 -94 33t-37 98q0 66 37 102t94 36h71q31 0 56 9t43 28.5t28 51t10 76.5v650q0 66 15.5 112.5t41 78t58 50.5t66 29.5t66 14.5t57.5 6v8q-25 2 -57.5 6.5t-66 15t-66 29.5
t-58 50.5t-41 77.5t-15.5 112v649z" />
    <glyph glyph-name="asciitilde" unicode="~" horiz-adv-x="1667" 
d="M1520 821q0 -61 -27 -125t-78.5 -116t-125.5 -85t-168 -33q-54 0 -109 13.5t-109 34.5t-106 44.5t-100 44.5t-90 34.5t-77 13.5q-37 0 -66 -12t-53 -30t-45 -39.5t-42 -39.5t-44 -30t-52 -12q-33 0 -55 11.5t-35.5 30t-19.5 42t-6 46.5q0 61 27 125t77 116t120.5 85
t158.5 33q58 0 115.5 -13.5t113.5 -34.5t109 -44.5t101 -44.5t90.5 -34.5t77.5 -13.5q37 0 66 12t53 30.5t45 39.5t42 39.5t44 30.5t52 12q33 0 55 -11.5t35.5 -30.5t19.5 -42t6 -47z" />
    <glyph glyph-name="saraileftthai" 
d="M-1731 1917q-33 0 -60.5 12.5t-47 34t-30.5 50.5t-11 62t11 62t30.5 51t47 34.5t60.5 12.5h908q33 0 60.5 -12.5t47 -34.5t30.5 -51t11 -62t-11 -62t-30.5 -50.5t-47 -34t-60.5 -12.5h-908z" />
    <glyph glyph-name="saraileftthai" unicode="&#xf701;" 
d="M-1731 1917q-33 0 -60.5 12.5t-47 34t-30.5 50.5t-11 62t11 62t30.5 51t47 34.5t60.5 12.5h908q33 0 60.5 -12.5t47 -34.5t30.5 -51t11 -62t-11 -62t-30.5 -50.5t-47 -34t-60.5 -12.5h-908z" />
    <glyph glyph-name="saraiileftthai" 
d="M-1731 1917q-33 0 -60.5 12.5t-47 34t-30.5 50.5t-11 62t11 62t30.5 51t47 34.5t60.5 12.5h629v89q0 41 16 76t43 60t63 39t77 14t77 -14t63 -39t42.5 -60t15.5 -76v-219q0 -41 -15.5 -76t-42.5 -60t-63 -39t-77 -14h-828z" />
    <glyph glyph-name="saraiileftthai" unicode="&#xf702;" 
d="M-1731 1917q-33 0 -60.5 12.5t-47 34t-30.5 50.5t-11 62t11 62t30.5 51t47 34.5t60.5 12.5h629v89q0 41 16 76t43 60t63 39t77 14t77 -14t63 -39t42.5 -60t15.5 -76v-219q0 -41 -15.5 -76t-42.5 -60t-63 -39t-77 -14h-828z" />
    <glyph glyph-name="saraueleftthai" 
d="M-1731 1917q-33 0 -60.5 12.5t-47 34t-30.5 50.5t-11 62t11 62t30.5 51t47 34.5t60.5 12.5h437v13q0 64 24.5 121t66.5 99t98.5 66.5t121.5 24.5q64 0 121 -25t99 -68t66.5 -100.5t24.5 -121.5q0 -71 -24.5 -131t-66.5 -104t-99 -68.5t-121 -24.5h-748zM-1094 2249
q0 -22 9 -41.5t24 -34t35 -23t43 -8.5t43 8.5t35 23t24 34t9 41.5q0 23 -9 43t-24 35t-35 23.5t-43 8.5t-43 -8.5t-35 -23.5t-24 -35t-9 -43z" />
    <glyph glyph-name="saraueleftthai" unicode="&#xf703;" 
d="M-1731 1917q-33 0 -60.5 12.5t-47 34t-30.5 50.5t-11 62t11 62t30.5 51t47 34.5t60.5 12.5h437v13q0 64 24.5 121t66.5 99t98.5 66.5t121.5 24.5q64 0 121 -25t99 -68t66.5 -100.5t24.5 -121.5q0 -71 -24.5 -131t-66.5 -104t-99 -68.5t-121 -24.5h-748zM-1094 2249
q0 -22 9 -41.5t24 -34t35 -23t43 -8.5t43 8.5t35 23t24 34t9 41.5q0 23 -9 43t-24 35t-35 23.5t-43 8.5t-43 -8.5t-35 -23.5t-24 -35t-9 -43z" />
    <glyph glyph-name="saraueeleftthai" 
d="M-1731 1917q-33 0 -60.5 12.5t-47 34t-30.5 50.5t-11 62t11 62t30.5 51t47 34.5t60.5 12.5h256v127q0 34 12 62t33 47.5t50 30.5t63 11t63.5 -11t51.5 -30.5t34.5 -47.5t12.5 -62v-127h131v127q0 34 12 62t33.5 47.5t50.5 30.5t63 11t63.5 -11t51 -30.5t33.5 -47.5
t12 -62v-257q0 -41 -15.5 -76t-42.5 -60t-63 -39t-77 -14h-828z" />
    <glyph glyph-name="saraueeleftthai" unicode="&#xf704;" 
d="M-1731 1917q-33 0 -60.5 12.5t-47 34t-30.5 50.5t-11 62t11 62t30.5 51t47 34.5t60.5 12.5h256v127q0 34 12 62t33 47.5t50 30.5t63 11t63.5 -11t51.5 -30.5t34.5 -47.5t12.5 -62v-127h131v127q0 34 12 62t33.5 47.5t50.5 30.5t63 11t63.5 -11t51 -30.5t33.5 -47.5
t12 -62v-257q0 -41 -15.5 -76t-42.5 -60t-63 -39t-77 -14h-828z" />
    <glyph glyph-name="maieklowleftthai" 
d="M-778 2081q0 -42 -16 -77t-43 -60.5t-63.5 -39.5t-77.5 -14t-77.5 14t-64 39.5t-43.5 60.5t-16 77v256q0 42 16 77t43.5 60.5t64 39.5t77.5 14t77.5 -14t63.5 -39.5t43 -60.5t16 -77v-256z" />
    <glyph glyph-name="maieklowleftthai" unicode="&#xf705;" 
d="M-778 2081q0 -42 -16 -77t-43 -60.5t-63.5 -39.5t-77.5 -14t-77.5 14t-64 39.5t-43.5 60.5t-16 77v256q0 42 16 77t43.5 60.5t64 39.5t77.5 14t77.5 -14t63.5 -39.5t43 -60.5t16 -77v-256z" />
    <glyph glyph-name="maitholowleftthai" 
d="M-920 2386q13 31 36.5 53t51.5 33t59 10t60 -15q28 -14 48.5 -38.5t31 -54t9.5 -62.5t-15 -64q-31 -69 -84 -129t-128.5 -103.5t-173 -68.5t-217.5 -25h-133q-27 0 -49 10.5t-37 29t-23 43t-8 52.5v136h-45q-27 0 -48.5 10.5t-37 29t-24 43t-8.5 52.5t8.5 52.5t24 43
t37 29t48.5 10.5h228q27 0 48.5 -10.5t37 -29t24 -43t8.5 -52.5v-115q50 3 93.5 17.5t78 38t60 53.5t39.5 64z" />
    <glyph glyph-name="maitholowleftthai" unicode="&#xf706;" 
d="M-920 2386q13 31 36.5 53t51.5 33t59 10t60 -15q28 -14 48.5 -38.5t31 -54t9.5 -62.5t-15 -64q-31 -69 -84 -129t-128.5 -103.5t-173 -68.5t-217.5 -25h-133q-27 0 -49 10.5t-37 29t-23 43t-8 52.5v136h-45q-27 0 -48.5 10.5t-37 29t-24 43t-8.5 52.5t8.5 52.5t24 43
t37 29t48.5 10.5h228q27 0 48.5 -10.5t37 -29t24 -43t8.5 -52.5v-115q50 3 93.5 17.5t78 38t60 53.5t39.5 64z" />
    <glyph glyph-name="maitrilowleftthai" 
d="M-866 2376q7 29 24 51t40 35.5t49.5 18t53.5 -2.5q30 -8 50 -25.5t31.5 -41.5t13.5 -52.5t-5 -57.5q-19 -67 -50 -130.5t-70.5 -115.5t-86.5 -88t-98 -46h-104q-35 0 -58.5 24.5t-26.5 62.5q-2 26 -5.5 50.5t-11 43t-19 30t-29.5 11.5q-29 0 -42.5 -20.5t-15.5 -54.5
q-2 -38 -24.5 -62.5t-58.5 -24.5q-34 0 -57 25t-24 62q-1 31 -14.5 53t-41.5 22q-38 0 -51 -31.5t-15 -81.5q-2 -65 -36.5 -97t-84.5 -32q-27 0 -49 10t-37.5 27.5t-23.5 41t-8 50.5q0 96 23 167t60.5 117.5t85 69.5t97.5 23q51 0 95.5 -27.5t77.5 -72.5q34 45 79 72.5
t101 27.5q34 0 67 -11.5t61 -33.5t49.5 -53t33.5 -71q17 24 32 60t23 78z" />
    <glyph glyph-name="maitrilowleftthai" unicode="&#xf707;" 
d="M-866 2376q7 29 24 51t40 35.5t49.5 18t53.5 -2.5q30 -8 50 -25.5t31.5 -41.5t13.5 -52.5t-5 -57.5q-19 -67 -50 -130.5t-70.5 -115.5t-86.5 -88t-98 -46h-104q-35 0 -58.5 24.5t-26.5 62.5q-2 26 -5.5 50.5t-11 43t-19 30t-29.5 11.5q-29 0 -42.5 -20.5t-15.5 -54.5
q-2 -38 -24.5 -62.5t-58.5 -24.5q-34 0 -57 25t-24 62q-1 31 -14.5 53t-41.5 22q-38 0 -51 -31.5t-15 -81.5q-2 -65 -36.5 -97t-84.5 -32q-27 0 -49 10t-37.5 27.5t-23.5 41t-8 50.5q0 96 23 167t60.5 117.5t85 69.5t97.5 23q51 0 95.5 -27.5t77.5 -72.5q34 45 79 72.5
t101 27.5q34 0 67 -11.5t61 -33.5t49.5 -53t33.5 -71q17 24 32 60t23 78z" />
    <glyph glyph-name="maichattawalowleftthai" 
d="M-1277 2463q0 37 14 68.5t38.5 54t57 35t69.5 12.5q38 0 71 -12.5t57.5 -35t38.5 -54t14 -68.5v-58h129q29 0 53 -11t41.5 -30t27 -44.5t9.5 -53.5q0 -29 -9.5 -54.5t-27 -44.5t-41.5 -30t-53 -11h-129v-56q0 -38 -14 -69t-39 -54t-58 -35.5t-70 -12.5q-38 0 -70.5 12.5
t-56.5 35.5t-38 54t-14 69v56h-129q-29 0 -53.5 11t-41.5 30.5t-26.5 45t-9.5 54.5q0 28 9.5 53.5t26.5 44t41.5 29.5t53.5 11h129v58z" />
    <glyph glyph-name="maichattawalowleftthai" unicode="&#xf708;" 
d="M-1277 2463q0 37 14 68.5t38.5 54t57 35t69.5 12.5q38 0 71 -12.5t57.5 -35t38.5 -54t14 -68.5v-58h129q29 0 53 -11t41.5 -30t27 -44.5t9.5 -53.5q0 -29 -9.5 -54.5t-27 -44.5t-41.5 -30t-53 -11h-129v-56q0 -38 -14 -69t-39 -54t-58 -35.5t-70 -12.5q-38 0 -70.5 12.5
t-56.5 35.5t-38 54t-14 69v56h-129q-29 0 -53.5 11t-41.5 30.5t-26.5 45t-9.5 54.5q0 28 9.5 53.5t26.5 44t41.5 29.5t53.5 11h129v58z" />
    <glyph glyph-name="thanthakhatlowleftthai" 
d="M-822 2483q69 5 116.5 -26.5t58.5 -92.5q6 -30 -0.5 -60t-22.5 -54t-40.5 -40.5t-55.5 -19.5q-50 -5 -86.5 -20.5t-62.5 -38t-42.5 -51.5t-25.5 -62q-11 -39 -37 -65t-60 -39.5t-73.5 -14.5t-77.5 12q-41 14 -69.5 41t-42.5 61.5t-13 73.5t18 75q31 66 78 121.5t111 97
t145.5 68t181.5 34.5z" />
    <glyph glyph-name="thanthakhatlowleftthai" unicode="&#xf709;" 
d="M-822 2483q69 5 116.5 -26.5t58.5 -92.5q6 -30 -0.5 -60t-22.5 -54t-40.5 -40.5t-55.5 -19.5q-50 -5 -86.5 -20.5t-62.5 -38t-42.5 -51.5t-25.5 -62q-11 -39 -37 -65t-60 -39.5t-73.5 -14.5t-77.5 12q-41 14 -69.5 41t-42.5 61.5t-13 73.5t18 75q31 66 78 121.5t111 97
t145.5 68t181.5 34.5z" />
    <glyph glyph-name="maieklowrightthai" 
d="M-156 2081q0 -42 -16 -77t-43 -60.5t-63.5 -39.5t-77.5 -14t-77.5 14t-64 39.5t-43.5 60.5t-16 77v286q0 42 16 77t43.5 60.5t64 39.5t77.5 14t77.5 -14t63.5 -39.5t43 -60.5t16 -77v-286z" />
    <glyph glyph-name="maieklowrightthai" unicode="&#xf70a;" 
d="M-156 2081q0 -42 -16 -77t-43 -60.5t-63.5 -39.5t-77.5 -14t-77.5 14t-64 39.5t-43.5 60.5t-16 77v286q0 42 16 77t43.5 60.5t64 39.5t77.5 14t77.5 -14t63.5 -39.5t43 -60.5t16 -77v-286z" />
    <glyph glyph-name="maitholowrightthai" 
d="M-417 2386q14 31 38.5 53t54.5 33t63 10t64 -15q30 -14 52 -38.5t32.5 -54t10 -62.5t-15.5 -64q-33 -69 -89.5 -129t-136.5 -103.5t-184 -68.5t-231 -25h-141q-29 0 -52.5 10.5t-39.5 29t-24.5 43t-8.5 52.5v136h-48q-28 0 -51 10.5t-39.5 29t-25.5 43t-9 52.5t9 52.5
t25.5 43t39.5 29t51 10.5h243q28 0 51 -10.5t39.5 -29t25.5 -43t9 -52.5v-115q54 3 100 17.5t82.5 38t63.5 53.5t42 64z" />
    <glyph glyph-name="maitholowrightthai" unicode="&#xf70b;" 
d="M-417 2386q14 31 38.5 53t54.5 33t63 10t64 -15q30 -14 52 -38.5t32.5 -54t10 -62.5t-15.5 -64q-33 -69 -89.5 -129t-136.5 -103.5t-184 -68.5t-231 -25h-141q-29 0 -52.5 10.5t-39.5 29t-24.5 43t-8.5 52.5v136h-48q-28 0 -51 10.5t-39.5 29t-25.5 43t-9 52.5t9 52.5
t25.5 43t39.5 29t51 10.5h243q28 0 51 -10.5t39.5 -29t25.5 -43t9 -52.5v-115q54 3 100 17.5t82.5 38t63.5 53.5t42 64z" />
    <glyph glyph-name="maitrilowrightthai" 
d="M-385 2374q9 29 29.5 51t48 35.5t59.5 17.5t64 -3q37 -8 62 -25t38.5 -41t16 -52t-6.5 -57q-22 -67 -59.5 -130.5t-85.5 -115.5t-105 -87.5t-118 -45.5h-127q-42 0 -70 24.5t-31 62.5q-2 26 -6.5 50t-13 43t-22 30t-34.5 11q-28 0 -49 -18t-22 -66q-1 -38 -30 -62.5
t-72 -24.5q-42 0 -71 24.5t-31 62.5q-2 46 -20.5 65t-48.5 19q-39 0 -56.5 -32t-19.5 -80q-1 -33 -12.5 -57.5t-31 -40t-45.5 -23.5t-56 -8q-34 0 -60.5 10t-45 27.5t-28 41t-9.5 50.5q0 96 28 166.5t73 116.5t103 68.5t118 22.5q61 0 114.5 -27.5t94.5 -70.5q41 43 95 70.5
t123 27.5q41 0 80.5 -11.5t73.5 -33t60 -52.5t40 -71q20 24 37.5 60t28.5 78z" />
    <glyph glyph-name="maitrilowrightthai" unicode="&#xf70c;" 
d="M-385 2374q9 29 29.5 51t48 35.5t59.5 17.5t64 -3q37 -8 62 -25t38.5 -41t16 -52t-6.5 -57q-22 -67 -59.5 -130.5t-85.5 -115.5t-105 -87.5t-118 -45.5h-127q-42 0 -70 24.5t-31 62.5q-2 26 -6.5 50t-13 43t-22 30t-34.5 11q-28 0 -49 -18t-22 -66q-1 -38 -30 -62.5
t-72 -24.5q-42 0 -71 24.5t-31 62.5q-2 46 -20.5 65t-48.5 19q-39 0 -56.5 -32t-19.5 -80q-1 -33 -12.5 -57.5t-31 -40t-45.5 -23.5t-56 -8q-34 0 -60.5 10t-45 27.5t-28 41t-9.5 50.5q0 96 28 166.5t73 116.5t103 68.5t118 22.5q61 0 114.5 -27.5t94.5 -70.5q41 43 95 70.5
t123 27.5q41 0 80.5 -11.5t73.5 -33t60 -52.5t40 -71q20 24 37.5 60t28.5 78z" />
    <glyph glyph-name="maichattawalowrightthai" 
d="M-550 2485q0 39 15 72t40.5 56.5t60 37t73.5 13.5t73 -13.5t59.5 -37t40.5 -56.5t15 -72v-60h136q30 0 55 -11.5t43 -31t28 -46.5t10 -57t-10 -56.5t-28 -46t-43 -31t-55 -11.5h-136v-60q0 -39 -15 -72t-40.5 -56.5t-60 -37t-73.5 -13.5t-73.5 13.5t-60 37t-40 56.5
t-14.5 72v60h-136q-30 0 -55 11.5t-43 31t-28 46.5t-10 57t10 56.5t28 46t43 31t55 11.5h136v60z" />
    <glyph glyph-name="maichattawalowrightthai" unicode="&#xf70d;" 
d="M-550 2485q0 39 15 72t40.5 56.5t60 37t73.5 13.5t73 -13.5t59.5 -37t40.5 -56.5t15 -72v-60h136q30 0 55 -11.5t43 -31t28 -46.5t10 -57t-10 -56.5t-28 -46t-43 -31t-55 -11.5h-136v-60q0 -39 -15 -72t-40.5 -56.5t-60 -37t-73.5 -13.5t-73.5 13.5t-60 37t-40 56.5
t-14.5 72v60h-136q-30 0 -55 11.5t-43 31t-28 46.5t-10 57t10 56.5t28 46t43 31t55 11.5h136v60z" />
    <glyph glyph-name="thanthakhatlowrightthai" 
d="M-221 2483q69 5 116.5 -26.5t58.5 -92.5q6 -30 -0.5 -60t-22.5 -54t-40.5 -40.5t-55.5 -19.5q-50 -5 -86.5 -20.5t-62.5 -38t-42.5 -51.5t-25.5 -62q-11 -39 -37 -65t-60 -39.5t-73.5 -14.5t-77.5 12q-41 14 -69.5 41t-42.5 61.5t-13 73.5t18 75q31 66 78 121.5t111 97
t145.5 68t181.5 34.5z" />
    <glyph glyph-name="thanthakhatlowrightthai" unicode="&#xf70e;" 
d="M-221 2483q69 5 116.5 -26.5t58.5 -92.5q6 -30 -0.5 -60t-22.5 -54t-40.5 -40.5t-55.5 -19.5q-50 -5 -86.5 -20.5t-62.5 -38t-42.5 -51.5t-25.5 -62q-11 -39 -37 -65t-60 -39.5t-73.5 -14.5t-77.5 12q-41 14 -69.5 41t-42.5 61.5t-13 73.5t18 75q31 66 78 121.5t111 97
t145.5 68t181.5 34.5z" />
    <glyph glyph-name="maihanakatleftthai" 
d="M-1281 2236q0 38 14.5 70t39.5 55t59 36t72 13t71.5 -13t58.5 -36t39.5 -55t14.5 -70h950q33 0 60.5 -12.5t47.5 -34.5t31 -51t11 -62t-11 -62t-31 -50.5t-47.5 -34t-60.5 -12.5h-1134q-38 0 -72 13t-59 36t-39.5 55t-14.5 70v145z" />
    <glyph glyph-name="maihanakatleftthai" unicode="&#xf710;" 
d="M-1281 2236q0 38 14.5 70t39.5 55t59 36t72 13t71.5 -13t58.5 -36t39.5 -55t14.5 -70h950q33 0 60.5 -12.5t47.5 -34.5t31 -51t11 -62t-11 -62t-31 -50.5t-47.5 -34t-60.5 -12.5h-1134q-38 0 -72 13t-59 36t-39.5 55t-14.5 70v145z" />
    <glyph glyph-name="nikhahitleftthai" 
d="M-1196 2224q0 -24 10.5 -47t28 -41t40.5 -28.5t48 -10.5q26 0 50 10.5t42 28.5t28.5 41t10.5 47q0 26 -10.5 50t-28.5 42t-42 28.5t-50 10.5q-25 0 -48 -10.5t-40.5 -28.5t-28 -42t-10.5 -50zM-1417 2224q0 74 27 138t74.5 111.5t111 75t135.5 27.5q70 0 134 -27.5
t112.5 -75t77 -111.5t28.5 -138q0 -72 -28.5 -135.5t-77 -110.5t-112.5 -74.5t-134 -27.5q-72 0 -135.5 27.5t-111 74.5t-74.5 110.5t-27 135.5z" />
    <glyph glyph-name="nikhahitleftthai" unicode="&#xf711;" 
d="M-1196 2224q0 -24 10.5 -47t28 -41t40.5 -28.5t48 -10.5q26 0 50 10.5t42 28.5t28.5 41t10.5 47q0 26 -10.5 50t-28.5 42t-42 28.5t-50 10.5q-25 0 -48 -10.5t-40.5 -28.5t-28 -42t-10.5 -50zM-1417 2224q0 74 27 138t74.5 111.5t111 75t135.5 27.5q70 0 134 -27.5
t112.5 -75t77 -111.5t28.5 -138q0 -72 -28.5 -135.5t-77 -110.5t-112.5 -74.5t-134 -27.5q-72 0 -135.5 27.5t-111 74.5t-74.5 110.5t-27 135.5z" />
    <glyph glyph-name="maitaikhuleftthai" 
d="M-1356 2472q-53 0 -83.5 -14.5t-46 -35t-19.5 -43.5t-4 -40q0 -11 3 -29t11 -35.5t23.5 -30.5t40.5 -13q29 0 50 17t29 48q11 46 46.5 69t80.5 23q48 0 84.5 -21.5t47.5 -70.5q6 -29 24 -47t44 -18q24 0 40 14t21 40q5 28 19.5 48t34.5 32.5t44.5 17.5t50.5 2
q30 -3 56.5 -15.5t45.5 -34t28.5 -51.5t4.5 -69q-9 -70 -36.5 -118.5t-68.5 -78.5t-91.5 -43.5t-105.5 -13.5q-40 0 -75 10.5t-65 27.5t-54 39t-42 46q-20 -25 -47 -47.5t-60 -39t-69.5 -26.5t-75.5 -10q-68 0 -120.5 18t-92.5 48t-67.5 69t-44.5 81t-24.5 84t-7.5 78
q0 104 37.5 180t99 125.5t141.5 73t166 23.5h699q27 0 49.5 -10.5t38.5 -29t25 -43t9 -52.5t-9 -52.5t-25 -42.5t-38.5 -28.5t-49.5 -10.5h-672z" />
    <glyph glyph-name="maitaikhuleftthai" unicode="&#xf712;" 
d="M-1356 2472q-53 0 -83.5 -14.5t-46 -35t-19.5 -43.5t-4 -40q0 -11 3 -29t11 -35.5t23.5 -30.5t40.5 -13q29 0 50 17t29 48q11 46 46.5 69t80.5 23q48 0 84.5 -21.5t47.5 -70.5q6 -29 24 -47t44 -18q24 0 40 14t21 40q5 28 19.5 48t34.5 32.5t44.5 17.5t50.5 2
q30 -3 56.5 -15.5t45.5 -34t28.5 -51.5t4.5 -69q-9 -70 -36.5 -118.5t-68.5 -78.5t-91.5 -43.5t-105.5 -13.5q-40 0 -75 10.5t-65 27.5t-54 39t-42 46q-20 -25 -47 -47.5t-60 -39t-69.5 -26.5t-75.5 -10q-68 0 -120.5 18t-92.5 48t-67.5 69t-44.5 81t-24.5 84t-7.5 78
q0 104 37.5 180t99 125.5t141.5 73t166 23.5h699q27 0 49.5 -10.5t38.5 -29t25 -43t9 -52.5t-9 -52.5t-25 -42.5t-38.5 -28.5t-49.5 -10.5h-672z" />
    <glyph glyph-name="maiekupperleftthai" 
d="M-705 2823q0 -41 -15.5 -74.5t-41.5 -58.5t-61.5 -38.5t-75.5 -13.5t-75.5 13.5t-62 38.5t-42 58.5t-15.5 74.5v228q0 40 15.5 74t42 59t62 38.5t75.5 13.5t75.5 -13.5t61.5 -38.5t41.5 -59t15.5 -74v-228z" />
    <glyph glyph-name="maiekupperleftthai" unicode="&#xf713;" 
d="M-705 2823q0 -41 -15.5 -74.5t-41.5 -58.5t-61.5 -38.5t-75.5 -13.5t-75.5 13.5t-62 38.5t-42 58.5t-15.5 74.5v228q0 40 15.5 74t42 59t62 38.5t75.5 13.5t75.5 -13.5t61.5 -38.5t41.5 -59t15.5 -74v-228z" />
    <glyph glyph-name="maithoupperleftthai" 
d="M-656 3122q14 31 38 53t53 33t61 10t63 -15q30 -14 52 -38.5t32.5 -54t10 -62.5t-15.5 -64q-33 -69 -89.5 -129t-136.5 -103.5t-184 -68.5t-231 -25h-141q-29 0 -52.5 10.5t-39.5 29t-24.5 43t-8.5 52.5v136h-48q-28 0 -51 10.5t-39.5 29t-25.5 43t-9 52.5t9 52.5
t25.5 43t39.5 29t51 10.5h243q28 0 51 -10.5t39.5 -29t25.5 -43t9 -52.5v-115q58 4 105 19t84 38t63 52.5t41 63.5z" />
    <glyph glyph-name="maithoupperleftthai" unicode="&#xf714;" 
d="M-656 3122q14 31 38 53t53 33t61 10t63 -15q30 -14 52 -38.5t32.5 -54t10 -62.5t-15.5 -64q-33 -69 -89.5 -129t-136.5 -103.5t-184 -68.5t-231 -25h-141q-29 0 -52.5 10.5t-39.5 29t-24.5 43t-8.5 52.5v136h-48q-28 0 -51 10.5t-39.5 29t-25.5 43t-9 52.5t9 52.5
t25.5 43t39.5 29t51 10.5h243q28 0 51 -10.5t39.5 -29t25.5 -43t9 -52.5v-115q58 4 105 19t84 38t63 52.5t41 63.5z" />
    <glyph glyph-name="maitriupperleftthai" 
d="M-593 3108q8 29 26.5 51t43 35.5t53.5 18t58 -2.5q33 -8 55.5 -25.5t35 -41.5t14.5 -52t-6 -57q-20 -67 -53.5 -130.5t-77 -115.5t-95 -87.5t-106.5 -45.5h-114q-38 0 -63.5 24.5t-28.5 62.5q-2 26 -6 50t-12.5 43t-22 30t-33.5 11q-32 0 -44.5 -20.5t-15.5 -53.5
q-4 -42 -28 -64.5t-62 -22.5t-63.5 23t-26.5 64q-1 33 -16 53.5t-47 20.5q-35 0 -51.5 -31.5t-18.5 -80.5q-2 -65 -39.5 -97t-91.5 -32q-30 0 -54 10t-40.5 27.5t-25.5 41t-9 50.5q0 96 25 166.5t66 117t93.5 69t106.5 22.5q55 0 103 -27.5t85 -71.5q37 44 86 71.5t111 27.5
q37 0 72.5 -11.5t66.5 -33t54.5 -52.5t35.5 -71q18 24 34 59.5t26 77.5z" />
    <glyph glyph-name="maitriupperleftthai" unicode="&#xf715;" 
d="M-593 3108q8 29 26.5 51t43 35.5t53.5 18t58 -2.5q33 -8 55.5 -25.5t35 -41.5t14.5 -52t-6 -57q-20 -67 -53.5 -130.5t-77 -115.5t-95 -87.5t-106.5 -45.5h-114q-38 0 -63.5 24.5t-28.5 62.5q-2 26 -6 50t-12.5 43t-22 30t-33.5 11q-32 0 -44.5 -20.5t-15.5 -53.5
q-4 -42 -28 -64.5t-62 -22.5t-63.5 23t-26.5 64q-1 33 -16 53.5t-47 20.5q-35 0 -51.5 -31.5t-18.5 -80.5q-2 -65 -39.5 -97t-91.5 -32q-30 0 -54 10t-40.5 27.5t-25.5 41t-9 50.5q0 96 25 166.5t66 117t93.5 69t106.5 22.5q55 0 103 -27.5t85 -71.5q37 44 86 71.5t111 27.5
q37 0 72.5 -11.5t66.5 -33t54.5 -52.5t35.5 -71q18 24 34 59.5t26 77.5z" />
    <glyph glyph-name="maichattawaupperleftthai" 
d="M-1085 3222q0 39 15 72t40.5 56.5t60 37t73.5 13.5t73 -13.5t59.5 -37t40.5 -56.5t15 -72v-60h136q30 0 55 -11.5t43 -31t28 -46.5t10 -57t-10 -56.5t-28 -46t-43 -31t-55 -11.5h-136v-60q0 -39 -15 -72t-40.5 -56.5t-60 -37t-73.5 -13.5t-73.5 13.5t-60 37t-40 56.5
t-14.5 72v60h-136q-30 0 -55 11.5t-43 31t-28 46.5t-10 57t10 56.5t28 46t43 31t55 11.5h136v60z" />
    <glyph glyph-name="maichattawaupperleftthai" unicode="&#xf716;" 
d="M-1085 3222q0 39 15 72t40.5 56.5t60 37t73.5 13.5t73 -13.5t59.5 -37t40.5 -56.5t15 -72v-60h136q30 0 55 -11.5t43 -31t28 -46.5t10 -57t-10 -56.5t-28 -46t-43 -31t-55 -11.5h-136v-60q0 -39 -15 -72t-40.5 -56.5t-60 -37t-73.5 -13.5t-73.5 13.5t-60 37t-40 56.5
t-14.5 72v60h-136q-30 0 -55 11.5t-43 31t-28 46.5t-10 57t10 56.5t28 46t43 31t55 11.5h136v60z" />
    <glyph glyph-name="thanthakhatupperleftthai" 
d="M-548 3027q69 5 116.5 -26.5t58.5 -92.5q6 -30 -0.5 -60t-22.5 -54t-40.5 -40.5t-55.5 -19.5q-50 -5 -86.5 -20.5t-62.5 -38t-42.5 -51.5t-25.5 -62q-11 -39 -37 -65t-60 -39.5t-73.5 -14.5t-77.5 12q-41 14 -69.5 41t-42.5 61.5t-13 73.5t18 75q31 66 78 121.5t111 97
t145.5 68t181.5 34.5z" />
    <glyph glyph-name="thanthakhatupperleftthai" unicode="&#xf717;" 
d="M-548 3027q69 5 116.5 -26.5t58.5 -92.5q6 -30 -0.5 -60t-22.5 -54t-40.5 -40.5t-55.5 -19.5q-50 -5 -86.5 -20.5t-62.5 -38t-42.5 -51.5t-25.5 -62q-11 -39 -37 -65t-60 -39.5t-73.5 -14.5t-77.5 12q-41 14 -69.5 41t-42.5 61.5t-13 73.5t18 75q31 66 78 121.5t111 97
t145.5 68t181.5 34.5z" />
    <glyph glyph-name="uni00A0" unicode="&#xa0;" horiz-adv-x="496" 
 />
    <glyph glyph-name="cent" unicode="&#xa2;" horiz-adv-x="1634" 
d="M753 1408q-45 -13 -87.5 -43t-74.5 -82t-51.5 -128t-19.5 -180q0 -152 59 -252t174 -128v813zM753 289q-157 10 -271.5 65.5t-188.5 146.5t-110 212t-36 262q0 152 38 281t113.5 226t189 157t265.5 75v173q0 20 7.5 36.5t20 28t28.5 18t33 6.5q16 0 32 -6.5t28.5 -18
t20 -28t7.5 -36.5v-167q110 -8 201 -41t156 -82.5t100.5 -110t35.5 -123.5q0 -41 -14 -72t-38.5 -51.5t-57 -31t-68.5 -10.5q-40 0 -65.5 13.5t-44 35t-34 47.5t-37 50t-53 43.5t-81.5 28.5v-826q48 10 78.5 31.5t52.5 47.5t39.5 54.5t39 51.5t50.5 38t74 15q36 0 65.5 -12
t50 -32.5t32 -47t11.5 -54.5q0 -58 -29 -123t-89.5 -121.5t-153.5 -97.5t-221 -51v-184q0 -20 -7.5 -36.5t-20 -28t-28.5 -18t-32 -6.5q-17 0 -33 6.5t-28.5 18.5t-20 28t-7.5 36v184z" />
    <glyph glyph-name="sterling" unicode="&#xa3;" horiz-adv-x="1675" 
d="M976 1099q85 0 127 -31.5t42 -99.5q0 -67 -42 -98.5t-127 -31.5h-214q6 -17 9.5 -32t3.5 -33q0 -60 -23 -124t-61.5 -124.5t-88.5 -114.5t-104 -94l5 -6q36 14 69 29t68.5 27t75.5 20t89 8q66 0 119.5 -8.5t101.5 -18.5t94 -18.5t98 -8.5q18 0 45.5 4.5t56.5 10.5
t56 10.5t44 4.5q37 0 66.5 -13.5t50 -37t31 -55t10.5 -68.5q0 -62 -27.5 -106t-72 -72t-100.5 -40.5t-113 -12.5q-69 0 -142 16t-150.5 35.5t-160.5 35.5t-173 16q-41 0 -73.5 -4t-58.5 -11.5t-47 -17t-38 -19.5q-18 -9 -34 -18t-32 -16.5t-33 -12t-37 -4.5q-43 0 -76 14.5
t-55 39.5t-33 59t-11 74q0 44 21 83.5t52.5 78t68 79t68 87t52.5 101t21 121.5q0 37 -8.5 71t-21.5 65h-144q-66 0 -106.5 32t-40.5 98q0 60 32.5 95.5t95.5 35.5h74q-21 31 -39 72.5t-31 87t-20.5 92.5t-7.5 89q0 84 24 159.5t68 139t105.5 114.5t137.5 87t163.5 55
t183.5 19q119 0 217.5 -20t177.5 -54.5t137.5 -80t97.5 -97.5t58.5 -107.5t19.5 -108.5q0 -46 -15 -81.5t-42 -59.5t-64.5 -36.5t-82.5 -12.5t-73.5 14.5t-48 37.5t-33 53t-28 61t-34 61t-50.5 53t-77.5 37.5t-115.5 14.5q-60 0 -116.5 -18t-100 -52.5t-70 -85t-26.5 -116.5
q0 -35 8 -77.5t20.5 -85.5t28.5 -83t33 -71h296z" />
    <glyph glyph-name="yen" unicode="&#xa5;" horiz-adv-x="1978" 
d="M774 542h-337q-23 0 -42 8t-33.5 22.5t-22.5 33.5t-8 42q0 22 8 41.5t22.5 33.5t33.5 22.5t42 8.5h337v79l-46 78h-291q-23 0 -42 8.5t-33.5 22.5t-22.5 33.5t-8 42.5q0 22 8 41.5t22.5 33.5t33.5 22.5t42 8.5h166l-359 590q-35 59 -35.5 115t27.5 99.5t80.5 69.5
t123.5 26q43 0 74.5 -14.5t53.5 -35t36 -42.5t21 -36l364 -694l365 694q7 14 21 36t36 42.5t53.5 35t74.5 14.5q67 0 120 -25t82 -67.5t30 -99t-36 -118.5l-359 -590h165q22 0 42 -8.5t34 -22.5t22.5 -33.5t8.5 -41.5q0 -23 -8.5 -42.5t-22.5 -33.5t-34 -22.5t-42 -8.5h-291
l-46 -78v-79h337q22 0 42 -8.5t34 -22.5t22.5 -33.5t8.5 -41.5q0 -23 -8.5 -42t-22.5 -33.5t-34 -22.5t-42 -8h-337v-360q0 -49 -14.5 -89t-42 -68.5t-67.5 -44t-91 -15.5t-91 15.5t-67.5 44t-42 68.5t-14.5 89v360z" />
    <glyph glyph-name="copyright" unicode="&#xa9;" horiz-adv-x="2216" 
d="M66 987q0 145 38 278.5t106.5 248.5t164 209t211.5 160.5t249 103t275 36.5t274.5 -36.5t248 -103t211 -160.5t163.5 -209t105.5 -248.5t37.5 -278.5q0 -149 -37.5 -284t-105.5 -250t-163.5 -208t-211 -158.5t-248 -100.5t-274.5 -35t-275 35t-249 100.5t-211.5 158.5
t-164 208t-106.5 249.5t-38 284.5zM328 987q0 -175 58 -324.5t162 -258.5t247.5 -170.5t314.5 -61.5q109 0 210 28t187.5 79.5t157.5 125t121.5 164t78 196t27.5 222.5t-27.5 222t-78 194.5t-121.5 162t-157.5 123t-187.5 78t-210 27.5q-114 0 -216 -27.5t-189 -78
t-156.5 -123t-118.5 -162t-75.5 -194.5t-26.5 -222zM580 986q0 127 37.5 235.5t108 188.5t171 125.5t226.5 45.5q107 0 191 -31.5t142.5 -80t89.5 -107t31 -112.5q0 -36 -12 -61.5t-29.5 -41t-36.5 -22.5t-32 -7q-30 0 -50.5 7.5t-34.5 20.5t-24.5 30t-19.5 36
q-12 23 -26.5 46.5t-38 42.5t-59.5 31t-91 12q-58 0 -105.5 -24.5t-81 -70t-52 -111t-18.5 -146.5q0 -79 18.5 -145t52.5 -114t82.5 -75t108.5 -27q49 0 83 12t57.5 30.5t40 42.5t30.5 48q12 20 24 38t27.5 32t36.5 22.5t50 8.5q50 0 80.5 -31t30.5 -85q0 -26 -13.5 -62.5
t-40 -76t-66 -78.5t-90.5 -69.5t-113.5 -49.5t-136.5 -19q-124 0 -225 46t-173 125.5t-111 187.5t-39 233z" />
    <glyph glyph-name="guillemotleft" unicode="&#xab;" horiz-adv-x="1516" 
d="M429 778l223 -153q37 -24 62 -60t25 -81q0 -27 -9.5 -52.5t-26.5 -45t-40.5 -31.5t-51.5 -12q-37 0 -61.5 14.5t-44.5 28.5l-266 193q-48 33 -72.5 86t-24.5 113t24.5 113t72.5 85l266 193q20 14 44.5 29t61.5 15q28 0 51.5 -12t40.5 -31.5t26.5 -45t9.5 -53.5
q0 -45 -25 -80.5t-62 -60.5zM1063 778l223 -153q37 -24 62 -60t25 -81q0 -27 -9.5 -52.5t-27 -45t-41 -31.5t-50.5 -12q-37 0 -61.5 14.5t-44.5 28.5l-267 193q-47 33 -71.5 86t-24.5 113t24.5 113t71.5 85l267 193q20 14 44.5 29t61.5 15q27 0 50.5 -12t41 -31.5t27 -45
t9.5 -53.5q0 -45 -25 -80.5t-62 -60.5z" />
    <glyph glyph-name="registered" unicode="&#xae;" horiz-adv-x="2216" 
d="M66 987q0 145 38 278.5t106.5 248.5t164 209t211.5 160.5t249 103t275 36.5t274.5 -36.5t248 -103t211 -160.5t163.5 -209t105.5 -248.5t37.5 -278.5q0 -149 -37.5 -284t-105.5 -250t-163.5 -208t-211 -158.5t-248 -100.5t-274.5 -35t-275 35t-249 100.5t-211.5 158.5
t-164 208t-106.5 249.5t-38 284.5zM328 987q0 -175 58 -324.5t162 -258.5t247.5 -170.5t314.5 -61.5q109 0 210 28t187.5 79.5t157.5 125t121.5 164t78 196t27.5 222.5t-27.5 222t-78 194.5t-121.5 162t-157.5 123t-187.5 78t-210 27.5q-114 0 -216 -27.5t-189 -78
t-156.5 -123t-118.5 -162t-75.5 -194.5t-26.5 -222zM699 1401q0 31 10.5 54.5t28.5 39t40.5 23t46.5 7.5h352q94 0 168 -16t126 -54t79.5 -103t27.5 -162q0 -77 -22 -134.5t-58 -97t-82.5 -60.5t-95.5 -24l180 -239q17 -23 27.5 -48t11 -49.5t-9 -47t-33.5 -41.5
q-28 -22 -57.5 -27t-57.5 4t-53.5 29t-45.5 49l-261 370h-72v-324q0 -65 -36.5 -96.5t-87.5 -31.5q-26 0 -48.5 8t-40 23.5t-27.5 39.5t-10 57v851zM949 1073h213q30 0 57.5 5t47.5 19.5t32 39.5t12 64q0 38 -12 62t-32 37.5t-47.5 18.5t-57.5 5h-213v-251z" />
    <glyph glyph-name="guillemotright" unicode="&#xbb;" horiz-adv-x="1516" 
d="M864 930q-37 25 -62 60.5t-25 80.5q0 28 9.5 53.5t26.5 45t40.5 31.5t51.5 12q37 0 61.5 -15t44.5 -29l266 -193q48 -32 72.5 -85t24.5 -113t-24.5 -113t-72.5 -86l-266 -193q-20 -14 -44.5 -28.5t-61.5 -14.5q-28 0 -51.5 12t-40.5 31.5t-26.5 45t-9.5 52.5q0 45 25 81
t62 60l223 153zM230 930q-37 25 -62 60.5t-25 80.5q0 28 9.5 53.5t27 45t41 31.5t50.5 12q37 0 61.5 -15t44.5 -29l267 -193q47 -32 71.5 -85t24.5 -113t-24.5 -113t-71.5 -86l-267 -193q-20 -14 -44.5 -28.5t-61.5 -14.5q-27 0 -50.5 12t-41 31.5t-27 45t-9.5 52.5
q0 45 25 81t62 60l223 153z" />
    <glyph glyph-name="onequarter" unicode="&#xbc;" horiz-adv-x="2458" 
d="M1964 854h-6l-310 -394h316v394zM1964 248h-438q-35 0 -60.5 11t-42.5 28t-25 37.5t-8 39.5q0 39 7.5 61.5t19.5 36.5l511 623q15 18 30 32t34 23.5t43 15t57 5.5t60 -9t47 -25t31 -39.5t11 -51.5v-576h66q45 0 71 -29.5t26 -76.5q0 -48 -26 -77t-71 -29h-66v-145
q0 -26 -6.5 -47t-22.5 -36t-42.5 -23t-66.5 -8t-67 8t-43 23t-22.5 36t-6.5 47v145zM1650 1968q7 13 17 27t22.5 25t29 18t37.5 7q22 0 41.5 -8t34 -21t22.5 -30t8 -34q0 -20 -8 -43t-22 -49l-979 -1850q-7 -13 -17 -26.5t-23 -24.5t-29.5 -18t-36.5 -7q-23 0 -42 8
t-33.5 21t-22.5 29.5t-8 33.5q0 40 29 93zM437 1554q-56 -26 -113.5 -32.5t-100.5 -6.5q-44 0 -70 25t-26 76q0 28 7 46t22.5 29.5t39.5 18t59 12.5l65 11q48 8 76.5 28t47.5 46t32 53.5t29 50.5t39 38t63 15q55 0 84.5 -23.5t29.5 -88.5v-916q0 -33 -6.5 -59.5t-22.5 -45
t-43.5 -29t-69.5 -10.5q-77 0 -109.5 39.5t-32.5 104.5v618z" />
    <glyph glyph-name="onehalf" unicode="&#xbd;" horiz-adv-x="2458" 
d="M2274 245q62 0 96 -30.5t34 -92.5q0 -69 -34 -95.5t-96 -26.5h-664q-38 0 -65 11.5t-44.5 30.5t-26 44t-8.5 53q0 88 75 175.5t241 183.5q93 54 155 89.5t99.5 66.5t53 64.5t15.5 83.5q0 31 -14 55.5t-38.5 42t-56.5 27t-68 9.5q-73 0 -129 -34t-83 -108
q-8 -23 -16.5 -40t-20.5 -28.5t-29.5 -17.5t-44.5 -6q-28 0 -52 6t-41.5 19t-27.5 34.5t-10 51.5q0 75 37 139t101.5 111t151 74t184.5 27q106 0 189.5 -24.5t141.5 -68t89 -103t31 -128.5q0 -80 -16.5 -138.5t-50.5 -104.5t-86 -82.5t-122 -73.5q-74 -39 -131.5 -68.5
t-98 -53t-65.5 -41.5t-34 -33h479zM1590 1968q7 13 17 27t22.5 25t29 18t37.5 7q22 0 41.5 -8t34 -21t22.5 -30t8 -34q0 -20 -8 -43t-22 -49l-979 -1850q-7 -13 -17 -26.5t-23 -24.5t-29.5 -18t-36.5 -7q-23 0 -42 8t-33.5 21t-22.5 29.5t-8 33.5q0 40 29 93zM437 1554
q-56 -26 -113.5 -32.5t-100.5 -6.5q-44 0 -70 25t-26 76q0 28 7 46t22.5 29.5t39.5 18t59 12.5l65 11q48 8 76.5 28t47.5 46t32 53.5t29 50.5t39 38t63 15q55 0 84.5 -23.5t29.5 -88.5v-916q0 -33 -6.5 -59.5t-22.5 -45t-43.5 -29t-69.5 -10.5q-77 0 -109.5 39.5
t-32.5 104.5v618z" />
    <glyph glyph-name="threequarters" unicode="&#xbe;" horiz-adv-x="2458" 
d="M1964 854h-6l-310 -394h316v394zM1964 248h-438q-35 0 -60.5 11t-42.5 28t-25 37.5t-8 39.5q0 39 7.5 61.5t19.5 36.5l511 623q15 18 30 32t34 23.5t43 15t57 5.5t60 -9t47 -25t31 -39.5t11 -51.5v-576h66q45 0 71 -29.5t26 -76.5q0 -48 -26 -77t-71 -29h-66v-145
q0 -26 -6.5 -47t-22.5 -36t-42.5 -23t-66.5 -8t-67 8t-43 23t-22.5 36t-6.5 47v145zM1763 1968q7 13 17 27t22.5 25t29 18t37.5 7q22 0 41.5 -8t34 -21t22.5 -30t8 -34q0 -20 -8 -43t-22 -49l-979 -1850q-7 -13 -17 -26.5t-23 -24.5t-29.5 -18t-36.5 -7q-23 0 -42 8
t-33.5 21t-22.5 29.5t-8 33.5q0 21 8 44t22 49zM131 1064q0 51 35.5 82.5t97.5 31.5q39 0 61 -12.5t36.5 -31.5t27 -40.5t33.5 -40.5t55.5 -31.5t93.5 -12.5q50 0 87 12t61 31.5t36 45.5t12 55q0 27 -6.5 50t-23.5 41t-46.5 30.5t-75.5 17.5q-18 2 -43.5 6t-48.5 13.5
t-39 27.5t-16 48q0 36 10 58t29.5 34.5t48.5 17.5t67 7q60 5 88.5 37t28.5 83q0 27 -13 48t-34.5 35t-50.5 21t-62 7q-51 0 -83 -11.5t-53 -28.5t-35.5 -37.5t-30.5 -37.5t-38 -28.5t-57 -11.5q-26 0 -48.5 5t-39.5 16.5t-27 30.5t-10 46q0 50 20 90.5t53 72t77 55
t92.5 38.5t98 22.5t94.5 7.5q120 0 204 -27.5t136.5 -72.5t76.5 -102t24 -116q0 -78 -43.5 -134.5t-125.5 -91.5v-6q52 -11 89 -34t61 -55.5t35 -73.5t11 -87q0 -97 -38.5 -169t-104.5 -119.5t-154.5 -71t-189.5 -23.5q-85 0 -151 14.5t-115 38t-83 54t-55 62t-30 61.5
t-9 53z" />
    <glyph glyph-name="multiply" unicode="&#xd7;" horiz-adv-x="1614" 
d="M1411 416q24 -24 38 -51t14 -57q0 -38 -13.5 -69.5t-37.5 -54.5t-56.5 -35.5t-69.5 -12.5q-29 0 -56 16t-48 36l-375 373l-375 -373q-21 -20 -48 -36t-56 -16q-38 0 -70 12.5t-56 35.5t-37.5 54.5t-13.5 69.5q0 30 14 57t38 51l373 376l-373 375q-24 25 -38 51.5
t-14 57.5q0 38 13.5 69.5t37.5 54t56 35t70 12.5q29 0 56 -15.5t48 -35.5l375 -373l375 373q21 20 48 35.5t56 15.5q37 0 69.5 -12.5t56.5 -35t37.5 -54t13.5 -69.5q0 -31 -14 -57.5t-38 -51.5l-373 -375z" />
    <glyph glyph-name="divide" unicode="&#xf7;" horiz-adv-x="1667" 
d="M602 221q0 48 18.5 91t50 75.5t73 52t87.5 19.5q48 0 90.5 -19.5t74.5 -52t50.5 -75.5t18.5 -91q0 -43 -18.5 -83t-50 -70.5t-73 -49t-87.5 -18.5t-88.5 17t-74.5 47t-51.5 70.5t-19.5 86.5zM602 1368q0 48 18.5 90.5t50 74.5t73 50.5t87.5 18.5q48 0 90.5 -18.5
t74.5 -50.5t50.5 -74.5t18.5 -90.5q0 -46 -18.5 -87.5t-50 -73t-73 -50t-87.5 -18.5t-88.5 18.5t-74.5 50t-51.5 73t-19.5 87.5zM1402 952q38 0 71.5 -8.5t59 -27t40 -49t14.5 -74.5q0 -45 -14.5 -75.5t-40 -49.5t-59 -27.5t-71.5 -8.5h-1136q-39 0 -72.5 8.5t-58.5 27.5
t-39.5 49.5t-14.5 75.5q0 44 14.5 74.5t39.5 49t58.5 27t72.5 8.5h1136z" />
    <glyph glyph-name="kokaithai" unicode="&#xe01;" horiz-adv-x="1802" 
d="M1225 1032q0 58 -18.5 115.5t-62 103.5t-115 74.5t-177.5 30.5q-81 1 -143.5 -14.5t-107 -40.5t-72 -55t-37.5 -58q52 -47 79 -120.5t27 -166.5v-714q0 -43 -16.5 -79t-45 -62.5t-66.5 -41t-81 -14.5t-81 14.5t-66.5 41t-45 62.5t-16.5 79v718q0 36 -11 74.5t-41 75.5
q-28 34 -44.5 58t-21.5 46t0.5 46.5t20.5 59.5q39 89 103.5 170.5t158.5 144t220 99.5t287 37q152 0 269.5 -27.5t206 -76t149.5 -116t98.5 -146.5t54.5 -167t17 -179v-813q0 -44 -16.5 -80.5t-45.5 -63.5t-67.5 -42t-81.5 -15q-44 0 -82 15t-67 42t-45.5 63.5t-16.5 80.5
v841z" />
    <glyph glyph-name="khokhaithai" unicode="&#xe02;" horiz-adv-x="1536" 
d="M835 666l196 873q9 42 33.5 74.5t58 53t74.5 28.5t84 1t78 -29t57.5 -54.5t30.5 -72.5t-2 -82l-311 -1176q-15 -65 -41 -120t-63.5 -95.5t-87 -63.5t-112.5 -23q-60 0 -109.5 23.5t-87 64.5t-64 96t-41.5 118l-282 1061h-58q-35 0 -65.5 13t-53.5 36t-36 53.5t-13 65.5
t13 65.5t36 53.5t53.5 36t65.5 13h286q35 0 62.5 -13t48.5 -35.5t35 -53t22 -66.5z" />
    <glyph glyph-name="khokhuatthai" unicode="&#xe03;" horiz-adv-x="1630" 
d="M561 1569q10 29 28 53t42 41.5t53.5 27.5t61.5 10q41 0 77 -15.5t62.5 -42.5t42 -63t15.5 -77q-5 -110 -18 -191t-38 -145.5t-63.5 -118.5t-94.5 -110q-34 -34 -54 -75.5t-30.5 -87t-14 -92t-3.5 -89.5q0 -63 16 -112t45.5 -82t70 -50.5t89.5 -17.5q46 0 85 13t67.5 41.5
t44.5 74.5t16 112v926q0 43 16.5 79.5t45 63t66.5 41.5t81 15t81 -15t66.5 -41.5t45 -63t16.5 -79.5v-954q0 -152 -51.5 -262.5t-138 -182.5t-201 -106.5t-240.5 -34.5q-128 0 -244 37.5t-205 111t-141.5 183.5t-52.5 254q0 101 3.5 182t23.5 150t63 129t123 120
q20 14 39 30q17 14 36.5 29.5t38.5 31.5q-8 -3 -21 -6.5t-26.5 -5.5t-25.5 -3.5t-17 -1.5q-38 0 -92 9.5t-109.5 38.5t-104.5 82t-77 140q-12 36 -8.5 71.5t20 66t45 53.5t66.5 33q36 10 72 5t66.5 -21.5t53.5 -44.5t34 -65q8 -30 28 -47.5t47 -17.5q29 0 48 18t30 48z" />
    <glyph glyph-name="khokhwaithai" unicode="&#xe04;" horiz-adv-x="1860" 
d="M931 682q-96 -18 -165 -57.5t-112.5 -97.5t-64 -134t-20.5 -168v-38q0 -43 -16.5 -79t-44.5 -62.5t-65.5 -41t-80.5 -14.5t-80.5 14.5t-65.5 41t-44 62.5t-16 79v804q0 92 16 181.5t52 170.5t95 149t145.5 118t202.5 78t267 28q149 0 264.5 -28t201 -78t144 -118t94 -149
t51 -170.5t15.5 -181.5v-804q0 -43 -16.5 -79t-45 -62.5t-66.5 -41t-81 -14.5t-81 14.5t-66.5 41t-45 62.5t-16.5 79v837q0 58 -19.5 117.5t-61.5 107t-109 77.5t-162 30t-164 -30t-113.5 -77.5t-66 -107t-21.5 -117.5v-156q59 59 126.5 99t150.5 63q36 9 71 3t64.5 -24
t50.5 -46t30 -64q9 -37 3.5 -72.5t-23.5 -65.5t-46.5 -51t-64.5 -28z" />
    <glyph glyph-name="khokhonthai" unicode="&#xe05;" horiz-adv-x="1876" 
d="M1720 187q0 -43 -16.5 -79t-45 -62.5t-66 -41t-80.5 -14.5t-81 14.5t-66.5 41t-45 62.5t-16.5 79v898q0 29 -3 62t-10 65t-19 61t-30 50l-217 -139q-85 -61 -176 0l-221 135q-14 -25 -24 -54.5t-17 -61t-10 -62t-3 -56.5v-237q59 59 126.5 99t150.5 63q36 9 71 3
t64.5 -24t50.5 -46t30 -64q9 -37 3.5 -72.5t-23.5 -65.5t-46.5 -51t-64.5 -28q-96 -18 -165 -57.5t-112.5 -97.5t-64 -134t-20.5 -168v-18q0 -43 -16.5 -79t-45 -62.5t-66.5 -41t-81 -14.5t-80.5 14.5t-66 41t-45 62.5t-16.5 79l-1 843q0 100 17 196.5t59.5 182t114.5 155.5
t183 116q17 7 43 15t57 10t63.5 -4t63.5 -26l182 -121l190 122q30 19 60 24.5t57 3.5t49.5 -9.5t37.5 -13.5q111 -45 185.5 -114.5t119.5 -155t64 -183t19 -198.5v-843z" />
    <glyph glyph-name="khorakhangthai" unicode="&#xe06;" horiz-adv-x="1815" 
d="M1659 602q0 -141 -29 -258.5t-100 -202t-189.5 -131.5t-296.5 -47q-68 0 -130 17t-117 46.5t-101 68.5t-82 83q0 -42 -16 -77t-43.5 -61t-64.5 -40.5t-79 -14.5t-79 14.5t-64 40.5t-43 61t-16 77v432q0 66 0.5 117t6.5 93t18.5 77t36 68t60.5 66t91 71q56 40 91 67.5
t56 55.5q-16 -11 -41.5 -18t-45.5 -7q-38 0 -92 9.5t-109.5 38.5t-104.5 82t-77 140q-12 36 -8.5 71.5t20 66t45 53.5t66.5 33q36 10 72 5t66.5 -21.5t53.5 -44.5t34 -65q8 -30 28 -47.5t47 -17.5q29 0 48 18t30 48q10 29 30.5 53t47 41.5t58 27.5t63.5 10q41 0 78 -14
t65 -40t44.5 -62.5t16.5 -81.5v-155q0 -74 -21 -136t-56 -115t-80 -98.5t-93 -85.5q-36 -29 -59.5 -52.5t-37.5 -50.5t-20 -61t-6 -85q0 -65 26 -124.5t74.5 -106t117.5 -74t155 -27.5q52 0 95 17t73.5 48t47.5 74.5t17 97.5v928q0 43 16.5 80t45.5 64t67 42t82 15
q43 0 81.5 -15t67.5 -42t45.5 -64t16.5 -80v-895z" />
    <glyph glyph-name="ngonguthai" unicode="&#xe07;" horiz-adv-x="1364" 
d="M1208 401q0 -117 -36 -200.5t-98.5 -137t-147 -79t-181.5 -25.5q-98 0 -171 23t-126.5 66t-91 104.5t-65.5 138.5l-189 517q-14 39 -11 77.5t20.5 72t47.5 59.5t70 40q39 15 79 14.5t74.5 -15t62 -42t41.5 -67.5l210 -591q9 -25 22 -35t32 -10q18 0 29.5 13t11.5 28v987
h-86q-35 0 -64.5 13.5t-50.5 36.5t-33 54t-12 66t12 66t33 54t50.5 36.5t64.5 13.5h343q35 0 64.5 -13.5t50.5 -36.5t33 -54t12 -66v-1108z" />
    <glyph glyph-name="chochanthai" unicode="&#xe08;" horiz-adv-x="1655" 
d="M905 479q17 46 37.5 101t40.5 112.5t38.5 114.5t32.5 107.5t22.5 91.5t8.5 67q0 132 -68.5 207.5t-209.5 75.5q-92 0 -156.5 -44.5t-102.5 -129.5q-18 -40 -51.5 -65t-74 -35.5t-83 -6.5t-78.5 23q-39 20 -65.5 51t-38.5 67.5t-8.5 76t25.5 77.5q47 80 114 144t151 109
t184.5 69t216.5 24q79 0 159.5 -12.5t155.5 -41t141 -75t115 -114t77 -158.5t28 -209q0 -83 -24 -184t-66 -218t-98.5 -249.5t-121.5 -278.5q-39 -91 -119.5 -143.5t-186.5 -52.5q-54 0 -102 13t-88 38t-69.5 62.5t-47.5 85.5l-159 439h-63q-36 0 -65.5 13.5t-51 37
t-33.5 54.5t-12 67t12 67.5t33.5 55t51 37t65.5 13.5h269q36 0 61 -13.5t43.5 -37t32 -55t25.5 -67.5z" />
    <glyph glyph-name="chochingthai" unicode="&#xe09;" horiz-adv-x="1802" 
d="M1647 172q0 -42 -16 -77.5t-43.5 -61t-64.5 -40t-79 -14.5t-79 15t-64.5 41.5t-43.5 62.5t-16 78q-45 -46 -102 -85t-121.5 -67.5t-134 -44.5t-138.5 -16q-173 0 -287.5 47t-182.5 131.5t-95.5 202t-27.5 258.5v148q0 43 16.5 79.5t44.5 63t66 41.5t81 15t81 -15
t66.5 -41.5t45 -63t16.5 -79.5v-177q0 -54 18 -97.5t51.5 -74.5t81 -48t107.5 -17q102 0 176.5 31t124 86t73.5 130t24 162v287q0 57 -16.5 114t-56 103t-105.5 74.5t-166 28.5q-69 0 -121.5 -10.5t-91.5 -29.5t-66 -45t-44 -56q-22 -36 -55 -59t-70.5 -32t-77.5 -3t-76 28
t-59 55t-32.5 71t-3.5 77.5t29 74.5q43 66 105.5 120t145.5 92.5t187 59.5t230 21q154 0 270 -27.5t201.5 -76.5t142 -116t90.5 -147t48 -169t14 -181v-827z" />
    <glyph glyph-name="chochangthai" unicode="&#xe0a;" horiz-adv-x="1614" 
d="M1040 717q0 73 -23 132t-64 100.5t-99.5 65.5t-128.5 29q-19 -30 -42.5 -62t-51.5 -73q-23 -31 -35 -56t-17.5 -49t-7 -50t-2.5 -58v-127q0 -63 19.5 -113t53 -85t78 -53.5t95.5 -18.5q46 0 87 14.5t71.5 44.5t48.5 77.5t18 113.5v168zM157 1658q42 14 82 23t74.5 14
t62.5 7t46 2q106 0 190.5 -26t140.5 -78.5t79.5 -132t7.5 -185.5q94 19 148.5 79.5t74.5 164.5q8 43 31 78t56.5 58.5t74 33t84.5 2.5q45 -7 81 -28t59.5 -52.5t32.5 -72.5t0 -89t-25.5 -93.5t-41.5 -86t-58.5 -75.5t-78.5 -62q60 -37 95.5 -91.5t54.5 -114t24.5 -116.5
t5.5 -100v-172q0 -100 -25 -182.5t-69 -148t-104.5 -113.5t-132 -79.5t-151 -47t-161.5 -15.5q-85 0 -167 16.5t-156 49.5t-136 82.5t-107.5 114.5t-71 146t-25.5 177v131q0 65 4.5 114t14 87.5t24 69.5t34.5 60t45.5 59.5t57.5 68.5q43 52 71 91t31 77q3 27 -13 44t-44 17
q-46 0 -121 -19q-33 -9 -65.5 -5t-60 18t-48 38.5t-30.5 56.5q-10 33 -7 65t17.5 60t38.5 48.5t56 31.5z" />
    <glyph glyph-name="sosothai" unicode="&#xe0b;" horiz-adv-x="1655" 
d="M1094 713q0 67 -20 127.5t-56 107t-87 75.5t-112 34q-18 -31 -41.5 -59.5t-48.5 -59.5q-31 -35 -50.5 -77t-31 -87t-16 -91t-4.5 -89q0 -63 19 -112t51.5 -82t75.5 -50.5t91 -17.5t89.5 13t73 41.5t49.5 74.5t18 112v140zM942 1503q-4 -61 -11.5 -112.5t-17.5 -96.5
q90 19 140 74t67 162q7 42 30 76.5t55.5 57t72.5 32t83 2.5q44 -7 79 -27t58 -50.5t32 -71t0 -88.5q-9 -50 -24 -94t-39 -82.5t-58 -73t-82 -64.5q63 -35 100.5 -91t57 -117.5t25.5 -121.5t6 -104v-168q0 -101 -25 -184t-70 -148t-106.5 -113t-134 -79.5t-153 -46.5
t-163.5 -15q-126 0 -244.5 37.5t-211 111t-148 183.5t-55.5 254q0 101 3.5 182t23.5 150t63 129t123 120q22 16 43 33q18 14 36.5 31.5t31.5 34.5q-16 -11 -41.5 -18t-45.5 -7q-38 0 -92 9.5t-109.5 38.5t-104.5 82t-77 140q-12 36 -8.5 71.5t20 66t45 53.5t66.5 33
q36 10 72 5t66.5 -21.5t53.5 -44.5t34 -65q8 -30 28 -47.5t47 -17.5q29 0 48 18t30 48q10 29 28.5 53t43 41.5t54 27.5t61.5 10q41 0 77.5 -14t63.5 -39.5t41.5 -62t11.5 -82.5z" />
    <glyph glyph-name="chochoethai" unicode="&#xe0c;" horiz-adv-x="2666" 
d="M1597 745q0 -87 21 -162t61.5 -130t99.5 -86t134 -31q40 0 72.5 12.5t55.5 40t35.5 73t12.5 111.5v915q0 43 16.5 80t45.5 64t67 42t82 15q43 0 81.5 -15t67.5 -42t45.5 -64t16.5 -80v-886q0 -152 -24 -271t-83.5 -200.5t-160.5 -124.5t-256 -43q-62 0 -122 18.5
t-113.5 48t-97.5 67t-73 75.5q0 -42 -16 -77t-43.5 -60.5t-64.5 -40t-79 -14.5t-79 14.5t-64 40.5t-43 61.5t-16 77.5v854q0 57 -17 113.5t-56 101.5t-103.5 74t-159.5 31q-74 1 -130.5 -12.5t-97 -37t-66.5 -53.5t-38 -61q106 -100 106 -287v-573h40q33 0 61 -13t48.5 -35
t31.5 -51.5t11 -62.5t-11 -62.5t-31.5 -51.5t-48.5 -35t-61 -13h-305q-33 0 -61 13t-48.5 35t-31.5 51.5t-11 62.5v739q0 36 -11 76.5t-41 77.5q-28 34 -44.5 58t-21.5 46t0.5 46.5t20.5 59.5q39 89 100.5 170.5t151.5 144t211 99.5t277 37q146 0 259 -27.5t197 -76.5
t141.5 -116t93 -146t51 -167t15.5 -179v-259z" />
    <glyph glyph-name="yoyingthai" unicode="&#xe0d;" horiz-adv-x="2666" 
d="M197 901q0 36 -11 76.5t-41 77.5q-28 34 -44.5 58t-21.5 46t0.5 46.5t20.5 59.5q39 89 100.5 170.5t151.5 144t211 99.5t277 37q146 0 259 -27.5t197 -76.5t141.5 -116t93 -146t51 -167t15.5 -179v-263q0 -133 46.5 -205.5t130.5 -72.5q75 0 133.5 37.5t99 100t61.5 144
t21 168.5v575q0 43 16.5 80t45.5 64t67 42t82 15q43 0 81.5 -15t67.5 -42t45.5 -64t16.5 -80v-1241q0 -170 -42 -320t-131 -262t-228 -176.5t-332 -64.5q-92 0 -179.5 20.5t-164 61.5t-139 102.5t-105.5 142.5q-21 45 -23 84t10.5 71t39 57t63.5 43t76 19.5t75 -10.5
t65.5 -37.5t47.5 -61.5t44.5 -63.5t57.5 -46.5t64 -28.5t64 -9.5q92 0 154 30.5t99.5 79t53.5 108t16 118.5v162q-71 -62 -161.5 -98.5t-198.5 -36.5q-160 0 -267.5 42t-173 123.5t-93 200.5t-27.5 273v258q0 58 -17 115.5t-56 103.5t-103.5 74.5t-159.5 30.5
q-68 1 -123 -13t-97.5 -37.5t-71.5 -52.5t-44 -57q52 -50 81 -126t29 -169v-573h40q33 0 61 -13t48.5 -35t31.5 -51.5t11 -62.5t-11 -62.5t-31.5 -51.5t-48.5 -35t-61 -13h-305q-33 0 -61 13t-48.5 35t-31.5 51.5t-11 62.5v739z" />
    <glyph glyph-name="dochadathai" unicode="&#xe0e;" horiz-adv-x="1872" 
d="M1716 -350q0 -52 -20 -97.5t-54 -79.5t-80 -54t-98 -20q-55 0 -102 22t-82 60q-23 25 -52.5 47t-68 38.5t-86 26.5t-106.5 10q-65 0 -119 -13t-102 -36.5t-93 -57t-92 -73.5q-23 -20 -51.5 -28t-57.5 -5.5t-56 16t-46 37.5q-21 24 -28.5 52.5t-4.5 57t16.5 55t34.5 48.5
q58 59 126 108.5t144.5 85.5t159 56t169.5 20q108 0 188.5 -23t138.5 -50v1179q0 58 -18.5 115.5t-62 103.5t-114.5 74.5t-177 30.5q-81 1 -143.5 -14.5t-107.5 -40.5t-72 -55t-38 -58q26 -23 45.5 -49t32 -59.5t19 -77t6.5 -101.5v-739q0 -33 -11 -62.5t-31.5 -51.5
t-48.5 -35t-61 -13h-300q-33 0 -61 13t-48.5 35t-31.5 51.5t-11 62.5t11 62.5t31.5 51.5t48.5 35t61 13h38v581q0 36 -11 74.5t-41 75.5q-28 34 -44.5 58t-21.5 46t0.5 46.5t20.5 59.5q39 89 103.5 170.5t158.5 144t220 99.5t287 37q151 0 269 -27.5t206 -76t149 -116
t99 -146.5t54.5 -167t16.5 -179v-1354z" />
    <glyph glyph-name="topatakthai" unicode="&#xe0f;" horiz-adv-x="1872" 
d="M1716 -378q0 -51 -19.5 -94t-53 -74.5t-78.5 -49.5t-96 -18q-54 0 -100.5 19.5t-70.5 64.5q-13 24 -26.5 46t-28.5 38.5t-32.5 26t-39.5 9.5q-35 0 -61 -24.5t-40 -60.5q-22 -52 -69.5 -85.5t-107.5 -33.5q-30 0 -57.5 9t-50.5 25.5t-40.5 39t-27.5 49.5
q-14 36 -37.5 60.5t-61.5 24.5q-39 0 -69.5 -26.5t-45.5 -64.5q-17 -41 -44.5 -67.5t-61 -39.5t-70.5 -12t-73 16t-60.5 42t-36.5 60t-11 70.5t16 73.5q29 68 71.5 117t96 81t115 47t128.5 15q48 0 90.5 -11t80 -29.5t69 -44t55.5 -54.5q22 27 50.5 51t62 42t70.5 28t75 10
q56 0 98 -18.5t70 -43.5v1196q0 58 -18.5 115.5t-62 103.5t-114.5 74.5t-177 30.5q-81 1 -143.5 -14.5t-107.5 -40.5t-72 -55t-38 -58q26 -23 45.5 -49t32 -59.5t19 -77t6.5 -101.5v-739q0 -33 -11 -62.5t-31.5 -51.5t-48.5 -35t-61 -13h-300q-33 0 -61 13t-48.5 35
t-31.5 51.5t-11 62.5t11 62.5t31.5 51.5t48.5 35t61 13h38v581q0 36 -11 74.5t-41 75.5q-28 34 -44.5 58t-21.5 46t0.5 46.5t20.5 59.5q39 89 103.5 170.5t158.5 144t220 99.5t287 37q151 0 269 -27.5t206 -76t149 -116t99 -146.5t54.5 -167t16.5 -179v-1382z" />
    <glyph glyph-name="thothanthai" unicode="&#xe10;" horiz-adv-x="1647" 
d="M371 618q-36 0 -65.5 13.5t-51 37t-33.5 54.5t-12 67t12 67.5t33.5 55t51 37t65.5 13.5h269q36 0 61 -13.5t43.5 -37t32 -55t25.5 -67.5l103 -311q17 46 37.5 101t40.5 112.5t38.5 114.5t32.5 107.5t22.5 91.5t8.5 67q0 132 -68.5 207.5t-209.5 75.5q-92 0 -156.5 -44.5
t-102.5 -129.5q-18 -40 -51.5 -65t-74 -35.5t-83 -6.5t-78.5 23q-39 20 -65.5 51t-38.5 67.5t-8.5 76t25.5 77.5q47 80 114 144t151 109t184.5 69t216.5 24q65 0 131 -9t131 -28q26 10 46 33t34 52q20 40 53.5 65.5t73.5 36t82 5.5t80 -27q39 -21 64.5 -54.5t36.5 -73
t6.5 -81.5t-25.5 -80q-23 -35 -54 -64t-69 -49q40 -65 63 -148t23 -188q0 -83 -23.5 -182.5t-64.5 -215t-96.5 -246.5t-120.5 -277q-20 -45 -51 -82.5t-71.5 -65t-88.5 -42.5t-100 -15q-54 0 -103 16t-90.5 45.5t-72.5 69.5t-49 88l-151 419h-63zM620 -574q-11 49 -35 78
t-61 29q-35 0 -59.5 -25.5t-36.5 -67.5q-8 -28 -24.5 -49.5t-39.5 -35t-50 -17.5t-55 4q-28 7 -49 23.5t-34 39t-17 49.5t2 56q20 94 60 151.5t88.5 88.5t100 40.5t94.5 8.5q62 -3 116 -29t85 -69q12 18 29.5 36t38.5 31.5t45 22t50 8.5q49 0 89 -26t63 -64q0 37 14 70
t38.5 57.5t57.5 39t70 14.5t70 -12.5t57.5 -35t38.5 -54t14 -68.5v-213q0 -37 -13.5 -68t-37 -53.5t-55.5 -35t-69 -12.5q-29 0 -56 9t-49.5 24.5t-39.5 37.5t-26 48q-13 35 -36 55.5t-56 20.5q-39 0 -66 -31t-38 -79q-9 -37 -39 -61t-70 -24t-70.5 25t-38.5 63z" />
    <glyph glyph-name="thonangmonthothai" unicode="&#xe11;" horiz-adv-x="1815" 
d="M1659 185q0 -43 -17 -79.5t-45.5 -63t-67 -41.5t-81.5 -15t-81.5 15t-67 41.5t-45.5 63t-17 79.5v1044v37t-2 34.5t-8.5 25t-18.5 9.5q-17 0 -50 -22.5t-77.5 -60.5t-98 -89.5t-110.5 -109.5q-68 -71 -114.5 -125.5t-75.5 -106t-42 -106.5t-13 -125v-401
q0 -43 -16.5 -79.5t-45 -63t-66.5 -41.5t-81 -15t-81 15t-66.5 41.5t-45 63t-16.5 79.5v372q0 63 2 111.5t8.5 87.5t19 72t33.5 67t51.5 72t73.5 86q53 59 92 99.5t64 68.5q-19 -10 -46 -15.5t-40 -5.5q-38 0 -91 9.5t-106.5 38.5t-101.5 82t-76 140q-12 36 -8.5 71.5t20 66
t45 53.5t66.5 33q36 10 72 5t66.5 -21.5t53.5 -44.5t34 -65q8 -30 28 -47.5t47 -17.5q29 0 48 18t30 48q10 29 30.5 53.5t47 42t58 27.5t63.5 10q68 0 122 -38t74 -102q122 85 214 119.5t157 34.5q94 0 152.5 -28t91 -80t44 -125t11.5 -164v-1138z" />
    <glyph glyph-name="thophuthaothai" unicode="&#xe12;" horiz-adv-x="2839" 
d="M1769 755q0 -89 21 -164t61.5 -129.5t99.5 -85t134 -30.5q41 0 74 12.5t55.5 40t34.5 73t12 111.5v896q0 43 16.5 81.5t45 67.5t67 45.5t82.5 16.5q43 0 81.5 -16.5t67.5 -45.5t45.5 -67.5t16.5 -81.5v-867q0 -152 -24 -271t-85 -200.5t-166 -124.5t-266 -43
q-57 0 -113 17t-107 46t-94.5 66.5t-74.5 79.5v-12q0 -42 -16 -76.5t-43 -60t-63.5 -39.5t-78.5 -14t-78.5 14t-63.5 39.5t-42.5 60.5t-15.5 77v882q0 76 -28.5 141t-90.5 114l-176 -116q-39 -23 -85.5 -26t-94.5 26l-181 121q-65 -50 -94 -117t-29 -143v-531l222 236h-17
q-27 0 -50 10t-40.5 27.5t-27.5 41t-10 50.5t10 50.5t27.5 41t40.5 27.5t50 10h340q31 0 58 -11.5t47.5 -31t32 -46t11.5 -57.5q0 -29 -8 -56.5t-26 -47.5l-665 -713q-32 -35 -77 -55t-97 -20q-50 0 -93 15.5t-75.5 44t-51 68.5t-18.5 90v834q0 100 21.5 196.5t69 182
t124 155.5t187.5 116q17 7 43 15t57 10t63.5 -4t63.5 -26l182 -121l190 122q30 19 60 24.5t57 3.5t49.5 -9.5t37.5 -13.5q111 -45 189 -114.5t126.5 -155t70.5 -183t22 -198.5v-275z" />
    <glyph glyph-name="nonenthai" unicode="&#xe13;" horiz-adv-x="2666" 
d="M197 905q0 36 -11 74.5t-41 75.5q-28 34 -44.5 58t-21.5 46t0.5 46.5t20.5 59.5q39 89 100.5 170.5t151.5 144t211 99.5t277 37q146 0 259 -27.5t197 -76.5t141.5 -116t93 -146t51 -167t15.5 -179v-421q0 -66 12 -111.5t35 -73t55.5 -40t74.5 -12.5q75 0 133.5 31t99 86
t61.5 130t21 162v737q0 43 16.5 80t45.5 64t67 42t82 15q43 0 81.5 -15t67.5 -42t45.5 -64t16.5 -80v-1321q0 -42 -16 -77t-43.5 -60.5t-64 -39.5t-78.5 -14t-79 14t-64.5 39.5t-44 60t-16.5 76.5v12q-32 -43 -74 -81t-90.5 -66.5t-103.5 -45t-113 -16.5q-160 0 -265.5 43
t-168.5 124.5t-88.5 200.5t-25.5 271v420q0 57 -17 113.5t-56 102t-103.5 74t-159.5 30.5q-68 1 -123 -13t-97.5 -37.5t-71.5 -52.5t-44 -57q52 -50 81 -124t29 -167v-577h40q33 0 61 -13t48.5 -35t31.5 -51.5t11 -62.5t-11 -62.5t-31.5 -51.5t-48.5 -35t-61 -13h-305
q-33 0 -61 13t-48.5 35t-31.5 51.5t-11 62.5v743z" />
    <glyph glyph-name="dodekthai" unicode="&#xe14;" horiz-adv-x="1925" 
d="M1352 1028q0 58 -21 117t-67 105.5t-119.5 76t-177.5 29.5q-106 0 -181 -29.5t-122 -76t-69 -105.5t-22 -117v-500l234 230h-29q-27 0 -50 10t-40.5 27.5t-27.5 41t-10 50.5t10 50.5t27.5 41t40.5 27.5t50 10h348q31 0 58 -11.5t47.5 -31t32 -46t11.5 -57.5
q0 -29 -7.5 -56t-31.5 -53l-679 -710q-32 -34 -75 -53.5t-94 -19.5q-48 0 -90.5 15t-74 43t-49.5 67t-18 87v805q0 92 17.5 181.5t57 169.5t102 148t152.5 117t209.5 77t272.5 28q150 0 268 -28t207.5 -77t151.5 -117t101 -148t56.5 -169.5t17.5 -181.5v-809
q0 -43 -16.5 -79.5t-45 -63t-66.5 -41.5t-81 -15t-81 15t-66 41.5t-44.5 63t-16.5 79.5v842z" />
    <glyph glyph-name="totaothai" unicode="&#xe15;" horiz-adv-x="1925" 
d="M1769 186q0 -43 -16.5 -79.5t-45 -63t-66.5 -41.5t-81 -15t-81 15t-66 41.5t-44.5 63t-16.5 79.5v877q0 34 -7 69t-21.5 68t-37 63.5t-53.5 54.5l-176 -116q-40 -22 -85.5 -25t-94.5 25l-181 121q-32 -25 -55.5 -56t-38.5 -65t-22 -69.5t-7 -69.5v-535l234 230h-29
q-27 0 -50 10t-40.5 27.5t-27.5 41t-10 50.5t10 50.5t27.5 41t40.5 27.5t50 10h348q31 0 58 -11.5t47.5 -31t32 -46t11.5 -57.5q0 -29 -7.5 -56t-31.5 -53l-679 -710q-32 -34 -75 -53.5t-94 -19.5q-48 0 -90.5 15t-74 43t-49.5 67t-18 87v840q0 100 21.5 196.5t69 182
t124 155.5t187.5 116q17 7 43 15t57 10t63.5 -4t63.5 -26l182 -121l190 122q30 19 60 24.5t57 3.5t49.5 -9.5t37.5 -13.5q111 -45 189 -114.5t126.5 -155t70.5 -183t22 -198.5v-844z" />
    <glyph glyph-name="thothungthai" unicode="&#xe16;" horiz-adv-x="1802" 
d="M180 905q0 36 -11 74.5t-41 75.5q-28 34 -44.5 58t-21.5 46t0.5 46.5t20.5 59.5q39 89 103.5 170.5t158.5 144t220 99.5t287 37q152 0 269.5 -27.5t206 -76t149.5 -116t98.5 -146.5t54.5 -167t17 -179v-815q0 -44 -16.5 -80.5t-45.5 -63.5t-67.5 -42t-81.5 -15
q-44 0 -82 15t-67 42t-45.5 63.5t-16.5 80.5v843q0 58 -18.5 115.5t-62 103.5t-115 74.5t-177.5 30.5q-81 1 -143.5 -14.5t-107 -40.5t-72 -55t-37.5 -58q52 -47 77 -120.5t25 -166.5v-577h40q33 0 61 -13t48.5 -35t31.5 -51.5t11 -62.5t-11 -62.5t-31.5 -51.5t-48.5 -35
t-61 -13h-302q-33 0 -61 13t-48.5 35t-31.5 51.5t-11 62.5v743z" />
    <glyph glyph-name="thothahanthai" unicode="&#xe17;" horiz-adv-x="1802" 
d="M1647 179q0 -43 -16 -79.5t-44 -63t-66 -41.5t-81 -15t-81 15t-66 41.5t-44 63t-16 79.5v917q0 119 -65 178t-193 59q-101 0 -176.5 -30.5t-125.5 -85t-75 -129.5t-25 -164v-745q0 -43 -16.5 -79.5t-45 -63t-66.5 -41.5t-81 -15t-81 15t-66 41.5t-44.5 63t-16.5 79.5
v1339q0 42 15.5 77t42.5 60.5t63.5 39.5t78.5 14t78.5 -14t63.5 -39.5t43 -60.5t16 -77v-25q103 103 221 158t245 55q172 0 291 -42t193 -121t107 -193t33 -258v-913z" />
    <glyph glyph-name="thothongthai" unicode="&#xe18;" horiz-adv-x="1712" 
d="M1089 1216q-20 40 -47 65.5t-61 41.5t-73.5 24t-84.5 13q-46 4 -91.5 1t-81.5 -13.5t-58.5 -28t-22.5 -41.5q0 -19 21 -36.5t54 -34t74 -31.5t81.5 -27.5t76 -22.5t58.5 -16q107 -30 196.5 -58.5t160.5 -63t124 -77t88 -99.5t52.5 -131.5t17.5 -172.5q0 -97 -27.5 -175
t-76.5 -138t-116 -103t-147 -71t-169 -41t-181 -13q-141 0 -269 30.5t-224.5 95.5t-153.5 168t-57 247v153q0 43 16.5 79.5t44.5 63t66 41.5t81 15t81 -15t66.5 -41.5t45 -63t16.5 -79.5v-153q0 -51 26 -86.5t67 -58.5t92 -33.5t102 -10.5q46 0 97.5 8.5t94.5 30.5t71 58
t28 92q0 34 -4 61.5t-17 52t-39 46t-69.5 43t-108 44t-155.5 48.5q-126 32 -236 72t-191 95t-128 130t-47 178q2 81 29.5 144.5t74.5 112t109.5 82t134 55t149 31t154.5 9.5q116 0 221 -18.5t192 -59t152.5 -104.5t104.5 -155q16 -40 17.5 -80.5t-11.5 -76.5t-40.5 -65
t-68.5 -45q-40 -17 -82 -16.5t-79.5 15t-69 42.5t-50.5 67z" />
    <glyph glyph-name="nonuthai" unicode="&#xe19;" horiz-adv-x="1802" 
d="M156 1499q0 43 16 79.5t44 63t66 41.5t81 15t81 -15t66 -41.5t44 -63t16 -79.5v-907q0 -59 18.5 -105t52 -77.5t81 -48t106.5 -16.5q101 0 176.5 30.5t125.5 85t75 129.5t25 164v745q0 43 16.5 79.5t45 63t66.5 41.5t81 15t81 -15t66 -41.5t44.5 -63t16.5 -79.5v-1334
q0 -42 -15.5 -77t-42.5 -60.5t-63.5 -39.5t-78.5 -14t-78.5 14t-63.5 39.5t-43 60.5t-16 77v20q-103 -103 -221 -158t-245 -55q-172 0 -291 42t-193 121t-107 193t-33 258v913z" />
    <glyph glyph-name="bobaimaithai" unicode="&#xe1a;" horiz-adv-x="1802" 
d="M1647 688q0 -92 -13.5 -181.5t-47 -170.5t-88.5 -149t-138 -118t-196.5 -78t-262.5 -28q-150 0 -264 28t-196.5 78t-137.5 118t-87.5 149t-46 170.5t-13.5 181.5v813q0 43 16 79t44 62t65.5 41t80.5 15t80.5 -15t65.5 -41t44.5 -62t16.5 -79v-842q0 -60 16 -119.5
t54.5 -107.5t102.5 -78t159 -30q94 0 157 30t101 78t54 107.5t16 119.5v842q0 43 16.5 79t45 62t66.5 41t81 15t81 -15t66.5 -41t45 -62t16.5 -79v-813z" />
    <glyph glyph-name="poplathai" unicode="&#xe1b;" horiz-adv-x="1801" 
d="M1646 688q0 -92 -13.5 -181.5t-47 -170.5t-88.5 -149t-138 -118t-196.5 -78t-262.5 -28q-150 0 -264 28t-196.5 78t-137.5 118t-87.5 149t-46 170.5t-13.5 181.5v813q0 43 16 79t44 62t65.5 41t80.5 15t80.5 -15t65.5 -41t44.5 -62t16.5 -79v-842q0 -60 16 -119.5
t54.5 -107.5t102.5 -78t159 -30q94 0 157 30t101 78t54 107.5t16 119.5v1577q0 43 16.5 79t45 62t66.5 41t81 15t81 -15t66.5 -41t45 -62t16.5 -79v-1548z" />
    <glyph glyph-name="phophungthai" unicode="&#xe1c;" horiz-adv-x="1929" 
d="M770 748q0 40 15 74t41.5 59t61.5 38.5t76 13.5q40 0 76 -13.5t62 -38.5t41.5 -59t15.5 -74v-125q0 -63 4 -117.5t16.5 -95t35 -63.5t59.5 -23t59.5 56t22.5 177v942q0 43 16.5 79.5t45 63t66.5 41.5t81 15t81 -15t66.5 -41.5t45 -63t16.5 -79.5v-1007q0 -135 -32.5 -235
t-92.5 -165t-145 -97t-189 -32q-112 0 -201.5 36.5t-150.5 111.5q-56 -69 -141 -108.5t-199 -39.5q-106 0 -192.5 32t-147.5 97t-94 165t-33 235v978q0 43 16.5 81t45 66.5t66.5 45t81 16.5h289q36 0 65.5 -13.5t51 -37t33.5 -54.5t12 -67t-12 -67t-33.5 -54.5t-51 -37
t-65.5 -13.5h-81v-778q0 -121 25.5 -177t69.5 -56q34 0 54 23t30.5 63.5t14 95t3.5 117.5v125z" />
    <glyph glyph-name="fofathai" unicode="&#xe1d;" horiz-adv-x="1929" 
d="M770 748q0 40 15 74t41.5 59t61.5 38.5t76 13.5q40 0 76 -13.5t62 -38.5t41.5 -59t15.5 -74v-125q0 -63 4 -117.5t16.5 -95t35 -63.5t59.5 -23t59.5 56t22.5 177v1677q0 43 16.5 79.5t45 63t66.5 41.5t81 15t81 -15t66.5 -41.5t45 -63t16.5 -79.5v-1742
q0 -135 -32.5 -235t-92.5 -165t-145 -97t-189 -32q-112 0 -201.5 36.5t-150.5 111.5q-56 -69 -141 -108.5t-199 -39.5q-106 0 -192.5 32t-147.5 97t-94 165t-33 235v978q0 43 16.5 81t45 66.5t66.5 45t81 16.5h289q36 0 65.5 -13.5t51 -37t33.5 -54.5t12 -67t-12 -67
t-33.5 -54.5t-51 -37t-65.5 -13.5h-81v-778q0 -121 25.5 -177t69.5 -56q34 0 54 23t30.5 63.5t14 95t3.5 117.5v125z" />
    <glyph glyph-name="phophanthai" unicode="&#xe1e;" horiz-adv-x="2249" 
d="M1797 136q-9 -36 -30 -64.5t-49.5 -49t-63.5 -31.5t-74 -11t-73.5 11.5t-63 32t-49 49.5t-30.5 64l-242 821l-238 -822q-10 -35 -31 -64t-49.5 -49.5t-63 -31.5t-73.5 -11t-74 11t-63.5 31.5t-49 49.5t-29.5 65l-351 1311q-12 43 -5 83t28.5 73t56 56.5t77.5 33.5
q44 10 86.5 4t78.5 -26t61.5 -53t34.5 -76l178 -814l242 832q9 30 27 55.5t42.5 43.5t54 28.5t62.5 10.5t63.5 -10.5t55 -29t42.5 -44.5t27 -56l240 -822l175 806q9 43 35 76t61.5 53t78.5 26t87 -4q43 -10 77 -33.5t55.5 -56.5t28.5 -73t-5 -83z" />
    <glyph glyph-name="fofanthai" unicode="&#xe1f;" horiz-adv-x="2249" 
d="M1797 136q-9 -36 -30 -64.5t-49.5 -49t-63.5 -31.5t-74 -11t-73.5 11.5t-63 32t-49 49.5t-30.5 64l-242 821l-238 -822q-10 -35 -31 -64t-49.5 -49.5t-63 -31.5t-73.5 -11t-74 11t-63.5 31.5t-49 49.5t-29.5 65l-351 1311q-12 43 -5 83t28.5 73t56 56.5t77.5 33.5
q44 10 86.5 4t78.5 -26t61.5 -53t34.5 -76l178 -814l242 832q9 30 27 55.5t42.5 43.5t54 28.5t62.5 10.5t63.5 -10.5t55 -29t42.5 -44.5t27 -56l240 -822l364 1541q9 43 35 76t61.5 53t78.5 26t87 -4q43 -10 77 -33.5t55.5 -56.5t28.5 -73t-5 -83z" />
    <glyph glyph-name="phosamphaothai" unicode="&#xe20;" horiz-adv-x="1872" 
d="M250 905q0 36 -11 74.5t-41 75.5q-28 34 -44.5 58t-21.5 46t0.5 46.5t20.5 59.5q39 89 103.5 170.5t158.5 144t220 99.5t287 37q151 0 269 -27.5t206 -76t149 -116t99 -146.5t54.5 -167t16.5 -179v-823q0 -44 -16.5 -80.5t-45.5 -63.5t-67.5 -42t-81.5 -15q-44 0 -82 15
t-67 42t-45.5 63.5t-16.5 80.5v851q0 58 -18.5 115.5t-62 103.5t-114.5 74.5t-177 30.5q-81 1 -143.5 -14.5t-107.5 -40.5t-72 -55t-38 -58q26 -23 45.5 -49t32 -59.5t19 -77t6.5 -101.5v-739q0 -33 -11 -62.5t-31.5 -51.5t-48.5 -35t-61 -13h-300q-33 0 -61 13t-48.5 35
t-31.5 51.5t-11 62.5t11 62.5t31.5 51.5t48.5 35t61 13h38v581z" />
    <glyph glyph-name="momathai" unicode="&#xe21;" horiz-adv-x="1802" 
d="M1647 586q0 -144 -33 -258t-107 -193t-193 -121t-291 -42q-63 0 -126.5 14.5t-123.5 44t-115 73t-101 101.5v-35q0 -42 -16 -77t-43 -60.5t-63.5 -39.5t-78.5 -14t-78.5 14t-63.5 39.5t-42.5 60.5t-15.5 77v1329q0 43 16.5 79.5t44.5 63t66 41.5t81 15t81 -15t66.5 -41.5
t45 -63t16.5 -79.5v-745q0 -89 25 -164t75 -129.5t125.5 -85t176.5 -30.5q58 0 106 16.5t81.5 48t52 77.5t18.5 105v907q0 43 16 79.5t44 63t66 41.5t81 15t81 -15t66 -41.5t44 -63t16 -79.5v-913z" />
    <glyph glyph-name="yoyakthai" unicode="&#xe22;" horiz-adv-x="1757" 
d="M1188 1502q0 43 16.5 79t44.5 62t65.5 41t80.5 15t80.5 -15t65.5 -41t44.5 -62t16.5 -79v-900q0 -158 -57.5 -278.5t-156.5 -201.5t-232 -122t-284 -41q-93 0 -184.5 15t-174 46.5t-153.5 79t-122.5 112t-81 146.5t-29.5 183q0 123 39.5 217.5t128.5 146.5
q-42 34 -73.5 74.5t-52.5 84t-31.5 89t-10.5 88.5q0 87 23 153.5t61.5 115t89.5 81t107.5 52t115 28t111.5 8.5h137q36 0 67.5 -13.5t55.5 -37.5t37.5 -55.5t13.5 -67.5t-13.5 -67.5t-37.5 -55.5t-55.5 -37.5t-67.5 -13.5h-84q-38 0 -66 -9t-46 -24.5t-26.5 -35.5t-8.5 -41
q0 -31 10.5 -58t31.5 -48t51.5 -34t70.5 -16h83q33 0 61.5 -12.5t50 -34t34 -50t12.5 -61.5t-12.5 -61.5t-34 -49.5t-50 -33.5t-61.5 -12.5h-67q-34 -2 -65 -9.5t-55 -28t-38 -58.5t-14 -101q0 -59 27.5 -104.5t73 -77t103.5 -48t119 -16.5q68 0 126 20t100 62t66 108
t24 158v847z" />
    <glyph glyph-name="roruathai" unicode="&#xe23;" horiz-adv-x="1524" 
d="M1357 1341q13 -40 9.5 -80.5t-21 -75t-48.5 -61.5t-71 -40t-80 -9.5t-74.5 21.5t-61.5 48t-40 70q-14 40 -36.5 68.5t-50.5 46.5t-61 26.5t-68 8.5q-34 0 -69.5 -7.5t-65 -23t-48 -40.5t-18.5 -60q0 -28 17 -51t53.5 -46t95 -47t141.5 -53q172 -62 283.5 -123t176 -126.5
t89.5 -138t25 -156.5q0 -146 -52 -246.5t-142.5 -162.5t-213.5 -89t-264 -27q-111 0 -211.5 23t-184 71.5t-147 124t-101.5 180.5q-15 40 -12.5 81.5t19.5 77.5t47 64t71 42q45 15 85.5 12.5t75 -20t60 -47.5t40.5 -70q30 -95 100 -141t174 -46q37 0 78.5 8t76 27t57 51.5
t22.5 81.5q0 36 -19 63.5t-57.5 52.5t-97 50t-138.5 56q-121 46 -226.5 92t-183.5 104.5t-122.5 136.5t-44.5 187q0 89 24.5 159.5t68 124t101.5 91.5t125.5 62t140.5 35t146 11q113 0 212.5 -19.5t180.5 -63t140.5 -114.5t94.5 -174z" />
    <glyph glyph-name="ruthai" unicode="&#xe24;" horiz-adv-x="1769" 
d="M180 905q0 36 -11 74.5t-41 75.5q-28 34 -44.5 58t-21.5 46t0.5 46.5t20.5 59.5q39 89 103.5 170.5t158.5 144t220 99.5t287 37q152 0 269.5 -27.5t206 -76t149.5 -116t98.5 -146.5t54.5 -167t17 -179v-1358q0 -44 -16.5 -80.5t-45.5 -63.5t-67.5 -42t-81.5 -15
q-44 0 -82 15t-67 42t-45.5 63.5t-16.5 80.5v1386q0 58 -18.5 115.5t-62 103.5t-115 74.5t-177.5 30.5q-81 1 -143.5 -14.5t-107 -40.5t-72 -55t-37.5 -58q52 -47 77 -120.5t25 -166.5v-577h40q33 0 61 -13t48.5 -35t31.5 -51.5t11 -62.5t-11 -62.5t-31.5 -51.5t-48.5 -35
t-61 -13h-302q-33 0 -61 13t-48.5 35t-31.5 51.5t-11 62.5v743z" />
    <glyph glyph-name="lolingthai" unicode="&#xe25;" horiz-adv-x="1761" 
d="M1192 770q-68 -43 -137.5 -62.5t-128.5 -31.5l-144 -28t-129.5 -35t-93 -51.5t-35.5 -78.5q0 -52 23 -87.5t59.5 -57t81.5 -30.5t90 -9q16 0 35 1t39 4q34 6 65 0t56.5 -21.5t43.5 -41.5t24 -60q6 -33 -0.5 -64t-23 -56.5t-41.5 -43.5t-57 -25q-55 -12 -105 -18.5
t-101 -6.5q-123 0 -233 26t-193.5 85t-132 153.5t-48.5 231.5q0 89 24.5 157.5t70.5 121.5t112.5 92t151.5 69t186 53t217 43q61 11 119.5 26t104 36.5t73 50.5t27.5 68q0 61 -25 96t-65.5 53t-91 22.5t-101.5 4.5q-54 0 -101 -8t-85 -27t-68.5 -51t-51.5 -81
q-17 -39 -44.5 -68.5t-62.5 -46.5t-77 -20t-88 11q-42 12 -71.5 41t-45 66.5t-16.5 80t15 83.5q42 108 114 181t165.5 117t205 63t232.5 19q80 0 161 -9.5t156 -32.5t140.5 -61.5t114 -96t76.5 -137t28 -183.5v-1019q0 -43 -16.5 -79t-44.5 -62.5t-65.5 -41t-80.5 -14.5
t-80.5 14.5t-65.5 41t-44.5 62.5t-16.5 79v593z" />
    <glyph glyph-name="luthai" unicode="&#xe26;" horiz-adv-x="1872" 
d="M250 905q0 36 -11 74.5t-41 75.5q-28 34 -44.5 58t-21.5 46t0.5 46.5t20.5 59.5q39 89 103.5 170.5t158.5 144t220 99.5t287 37q151 0 269 -27.5t206 -76t149 -116t99 -146.5t54.5 -167t16.5 -179v-1357q0 -44 -16.5 -80.5t-45.5 -63.5t-67.5 -42t-81.5 -15q-44 0 -82 15
t-67 42t-45.5 63.5t-16.5 80.5v1385q0 58 -18.5 115.5t-62 103.5t-114.5 74.5t-177 30.5q-81 1 -143.5 -14.5t-107.5 -40.5t-72 -55t-38 -58q26 -23 45.5 -49t32 -59.5t19 -77t6.5 -101.5v-739q0 -33 -11 -62.5t-31.5 -51.5t-48.5 -35t-61 -13h-300q-33 0 -61 13t-48.5 35
t-31.5 51.5t-11 62.5t11 62.5t31.5 51.5t48.5 35t61 13h38v581z" />
    <glyph glyph-name="wowaenthai" unicode="&#xe27;" horiz-adv-x="1606" 
d="M778 -37q-116 0 -214 29t-176.5 82.5t-137 129.5t-95.5 169q-16 40 -14 81.5t18.5 78t46.5 65t71 43.5t82.5 12.5t77.5 -20t63.5 -47.5t41.5 -71q16 -48 41 -84t55.5 -59.5t66 -35.5t73.5 -12q69 0 124 30.5t93 93.5t58 160.5t20 231.5q0 133 -20 231t-58 162.5t-93 95.5
t-124 31q-38 0 -73 -12t-66 -35.5t-55.5 -59.5t-40.5 -84q-14 -41 -41.5 -71t-63.5 -47.5t-77.5 -20t-82.5 12.5t-71 43.5t-47 65t-19 78t14 81.5q37 93 97.5 169t140.5 129t177 82t208 29q187 0 324.5 -63.5t227.5 -179t133.5 -277.5t43.5 -360t-43.5 -360t-133.5 -277
t-227.5 -177.5t-324.5 -62.5z" />
    <glyph glyph-name="sosalathai" unicode="&#xe28;" horiz-adv-x="1860" 
d="M931 682q-96 -18 -165 -57.5t-112.5 -97.5t-64 -134t-20.5 -168v-38q0 -43 -16.5 -79t-44.5 -62.5t-65.5 -41t-80.5 -14.5t-80.5 14.5t-65.5 41t-44 62.5t-16 79v804q0 92 16 181.5t52 170.5t95 149t145.5 118t202.5 78t267 28q101 0 185 -13t155 -37q26 14 47.5 36.5
t34.5 49.5q26 57 68.5 86.5t105.5 29.5q40 0 75.5 -15.5t61.5 -42t40 -61.5t11 -75q-5 -72 -47 -122t-105 -88q76 -100 107 -221.5t31 -251.5v-804q0 -43 -16.5 -79t-45 -62.5t-66.5 -41t-81 -14.5t-81 14.5t-66.5 41t-45 62.5t-16.5 79v837q0 58 -19.5 117.5t-61.5 107
t-109 77.5t-162 30t-164 -30t-113.5 -77.5t-66 -107t-21.5 -117.5v-156q59 59 126.5 99t150.5 63q36 9 71 3t64.5 -24t50.5 -46t30 -64q9 -37 3.5 -72.5t-23.5 -65.5t-46.5 -51t-64.5 -28z" />
    <glyph glyph-name="sorusithai" unicode="&#xe29;" horiz-adv-x="1868" 
d="M946 758q-38 0 -71 13t-58 36t-39 54.5t-14 69.5v132q0 38 14 69.5t39 54.5t58 36t71 13q37 0 70 -12.5t57.5 -34.5t39.5 -52.5t16 -67.5h157v431q0 43 16.5 79.5t45 63t67 41.5t81.5 15t81.5 -15t67.5 -41.5t46 -63t17 -79.5v-431h21q32 0 59 -12.5t46.5 -33.5t30 -49.5
t10.5 -60.5t-10.5 -60.5t-30 -49.5t-46.5 -33t-59 -12h-21v-70q0 -92 -15 -181.5t-50 -170.5t-93 -149t-144 -118t-203 -78t-269 -28q-156 0 -274 28t-204.5 78t-144 118t-92 149t-49 170.5t-14.5 181.5v812q0 43 16.5 79.5t44.5 63t66 41.5t81 15t81 -15t66.5 -41.5t45 -63
t16.5 -79.5v-841q0 -60 17.5 -119.5t59.5 -107.5t111.5 -78t172.5 -30t170.5 30t108 78t57 107.5t16.5 119.5v99h-340z" />
    <glyph glyph-name="sosuathai" unicode="&#xe2a;" horiz-adv-x="1761" 
d="M1678 1674q-5 -69 -44 -118.5t-99 -86.5q34 -54 52.5 -121t18.5 -152v-1019q0 -43 -16.5 -79t-44.5 -62.5t-65.5 -41t-80.5 -14.5t-80.5 14.5t-65.5 41t-44.5 62.5t-16.5 79v593q-68 -43 -137.5 -62.5t-128.5 -31.5l-144 -28t-129.5 -35t-93 -51.5t-35.5 -78.5
q0 -52 23 -87.5t59.5 -57t81.5 -30.5t90 -9q16 0 35 1t39 4q34 6 65 0t56.5 -21.5t43.5 -41.5t24 -60q6 -33 -0.5 -64t-23 -56.5t-41.5 -43.5t-57 -25q-55 -12 -105 -18.5t-101 -6.5q-123 0 -233 26t-193.5 85t-132 153.5t-48.5 231.5q0 89 24.5 157.5t70.5 121.5t112.5 92
t151.5 69t186 53t217 43q61 11 119.5 26t104 36.5t73 50.5t27.5 68q0 61 -25 96t-65.5 53t-91 22.5t-101.5 4.5q-54 0 -101 -8t-85 -27t-68.5 -51t-51.5 -81q-17 -39 -44.5 -68.5t-62.5 -46.5t-77 -20t-88 11q-42 12 -71.5 41t-45 66.5t-16.5 80t15 83.5q42 108 114 181
t165.5 117t205 63t232.5 19q80 0 161 -9.5t156 -32.5q21 14 39.5 34.5t29.5 43.5q26 57 68.5 86.5t105.5 29.5q40 0 75.5 -15.5t61.5 -42t40 -61.5t11 -75z" />
    <glyph glyph-name="hohipthai" unicode="&#xe2b;" horiz-adv-x="1765" 
d="M1618 179q0 -43 -16.5 -79.5t-45 -63t-66.5 -41.5t-81 -15t-81 15t-66.5 41.5t-45 63t-16.5 79.5v621q0 41 -4.5 78t-16.5 68t-32 54t-51 37l-523 -339v-519q0 -43 -16.5 -79.5t-45 -63t-66.5 -41.5t-81 -15t-81 15t-66 41.5t-44.5 63t-16.5 79.5v1321q0 43 16.5 79.5
t44.5 63t66 41.5t81 15t81 -15t66.5 -41.5t45 -63t16.5 -79.5v-323l778 492q34 22 72.5 28.5t75.5 -1.5t69 -30t54 -56t28.5 -72t-1.5 -75t-30 -69t-56 -54l-124 -81q51 -38 85.5 -89t55.5 -113t29.5 -134t8.5 -152v-592z" />
    <glyph glyph-name="lochulathai" unicode="&#xe2c;" horiz-adv-x="2195" 
d="M1799 1842q24 52 73.5 84.5t111.5 32.5q43 0 80 -16t65 -44t44 -65t16 -80q0 -47 -20 -86t-52 -70t-71.5 -55.5t-79.5 -43.5q72 -82 99 -178t-5 -203l-294 -994q-19 -65 -73.5 -104.5t-126.5 -39.5q-73 0 -125 40.5t-75 104.5l-264 723l-256 -724q-19 -65 -73.5 -104.5
t-126.5 -39.5q-36 0 -69 10.5t-59 29.5t-44.5 45.5t-27.5 59.5l-345 1323q-12 43 -5 83t28.5 73t56 56.5t77.5 33.5q44 10 86.5 4t78.5 -26t61.5 -53t34.5 -76l165 -871l233 632q11 30 29 55t42 43.5t53 29t62 10.5q67 0 115 -38.5t71 -98.5l247 -658l102 459
q11 55 16.5 98.5t-0.5 76.5t-27.5 55.5t-63.5 34.5q-26 7 -48.5 22.5t-39 37t-25.5 47t-9 54.5q0 31 10.5 59t29 50t44 37t54.5 20q80 14 135.5 49t84.5 95z" />
    <glyph glyph-name="oangthai" unicode="&#xe2d;" horiz-adv-x="1737" 
d="M732 954q35 0 64.5 -13.5t50.5 -36.5t33 -54t12 -66t-12 -66t-33 -54t-50.5 -36.5t-64.5 -13.5h-195q17 -65 48 -118t74 -91.5t96.5 -59.5t116.5 -21q83 0 148.5 34.5t111 100t69.5 160.5t24 217q0 251 -88 383.5t-269 132.5q-48 0 -97 -11t-93 -31.5t-80 -51t-58 -69.5
q-21 -39 -49 -68t-62 -46.5t-74.5 -20.5t-86.5 11q-42 12 -73 41.5t-47.5 67.5t-17 80.5t19.5 81.5q45 89 116.5 160.5t163.5 121t202.5 76t235.5 26.5q215 0 364.5 -68t242.5 -187t134.5 -280.5t41.5 -348.5q0 -117 -18.5 -227t-58.5 -207t-102 -177.5t-148.5 -139
t-199 -90.5t-252.5 -32q-137 0 -246.5 29.5t-194 83.5t-145.5 129.5t-101.5 166.5t-61 195.5t-24.5 216.5q0 35 12 66t33 54t50.5 36.5t64.5 13.5h473z" />
    <glyph glyph-name="honokhukthai" unicode="&#xe2e;" horiz-adv-x="1729" 
d="M872 -37q-137 0 -246.5 29.5t-194 83.5t-145.5 129.5t-101.5 166.5t-61 195.5t-24.5 216.5q0 35 12 66t33 54t50.5 36.5t64.5 13.5h473q35 0 64.5 -13.5t50.5 -36.5t33 -54t12 -66t-12 -66t-33 -54t-50.5 -36.5t-64.5 -13.5h-195q17 -65 48 -118t74 -91.5t96.5 -59.5
t116.5 -21q83 0 148.5 34.5t111 100t69.5 160.5t24 217q0 251 -88 383.5t-269 132.5q-48 0 -97 -11t-93 -31.5t-80 -51t-58 -69.5q-21 -39 -49 -68t-62 -46.5t-74.5 -20.5t-86.5 11q-42 12 -73 41.5t-47.5 67.5t-17 80.5t19.5 81.5q45 89 116.5 160.5t163.5 121t202.5 76
t235.5 26.5q95 0 176 -13.5t150 -39.5q25 14 47 36.5t34 48.5q26 57 68.5 86.5t105.5 29.5q40 0 75.5 -15.5t61.5 -42t40 -61.5t11 -75q-5 -72 -47 -122.5t-106 -88.5l-6 -2q92 -120 132.5 -279.5t40.5 -345.5q0 -117 -18.5 -227t-58.5 -207t-102 -177.5t-148.5 -139
t-199 -90.5t-252.5 -32z" />
    <glyph glyph-name="paiyannoithai" unicode="&#xe2f;" horiz-adv-x="1810" 
d="M1241 692q-77 -40 -171.5 -63t-197.5 -23q-177 0 -310 40.5t-222.5 115t-134.5 180t-45 234.5q0 95 25 169t68 130t100.5 95t123 63t135.5 35t138 11h160q36 0 65.5 -13.5t51 -37t33.5 -54.5t12 -67t-12 -67t-33.5 -54.5t-51 -37t-65.5 -13.5h-160q-84 0 -124 -44.5
t-40 -119.5q0 -37 13 -74t44.5 -67t84 -48.5t132.5 -18.5q184 0 282.5 63.5t98.5 202.5v273q0 43 16.5 79t44.5 62t65.5 41t80.5 15t80.5 -15t65.5 -41t44.5 -62t16.5 -79v-1325q0 -43 -16.5 -79t-44.5 -62.5t-65.5 -41t-80.5 -14.5t-80.5 14.5t-65.5 41t-44.5 62.5
t-16.5 79v515z" />
    <glyph glyph-name="saraathai" unicode="&#xe30;" horiz-adv-x="1044" 
d="M332 1073q-36 0 -67 12t-54.5 33.5t-37 51t-13.5 65.5v141q0 36 13.5 65.5t37 51t54.5 33.5t67 12t67 -12t54.5 -33.5t37 -51t13.5 -65.5h297q31 0 57.5 -12t45 -32.5t29 -48.5t10.5 -59q0 -32 -10.5 -59.5t-29 -47.5t-45 -32t-57.5 -12h-469zM332 242q-36 0 -67 12
t-54.5 33.5t-37 51t-13.5 65.5v141q0 36 13.5 65.5t37 51t54.5 33.5t67 12t67 -12t54.5 -33.5t37 -51t13.5 -65.5h297q31 0 57.5 -12t45 -32.5t29 -48.5t10.5 -59q0 -32 -10.5 -59.5t-29 -47.5t-45 -32t-57.5 -12h-469z" />
    <glyph glyph-name="maihanakatthai" unicode="&#xe31;" 
d="M-1102 2236q0 38 14.5 70t39.5 55t59 36t72 13t71.5 -13t58.5 -36t39.5 -55t14.5 -70h679q33 0 60.5 -12.5t47.5 -34.5t31 -51t11 -62t-11 -62t-31 -50.5t-47.5 -34t-60.5 -12.5h-863q-38 0 -72 13t-59 36t-39.5 55t-14.5 70v145z" />
    <glyph glyph-name="saraaathai" unicode="&#xe32;" horiz-adv-x="1450" 
d="M877 1081q0 145 -54.5 210t-158.5 65q-72 0 -124.5 -39.5t-77.5 -118.5q-15 -41 -44.5 -72t-67 -48.5t-80 -20t-83.5 12.5t-71.5 44t-47 66t-18 79t14.5 83q37 92 99.5 162t142 117t171 71t186.5 24q133 0 248.5 -35t200.5 -106.5t133.5 -181t48.5 -258.5v-956
q0 -43 -16.5 -79.5t-45 -63t-66.5 -41.5t-81 -15t-81 15t-66.5 41.5t-45 63t-16.5 79.5v902z" />
    <glyph glyph-name="saraamthai" unicode="&#xe33;" horiz-adv-x="1450" 
d="M-504 2224q0 -24 10.5 -47t28.5 -41t41 -28.5t47 -10.5q26 0 50 10.5t42 28.5t28.5 41t10.5 47q0 26 -10.5 50t-28.5 42t-42 28.5t-50 10.5q-24 0 -47 -10.5t-41 -28.5t-28.5 -42t-10.5 -50zM-725 2224q0 74 27.5 138t74.5 111.5t110.5 75t135.5 27.5q71 0 135 -27.5
t112 -75t76.5 -111.5t28.5 -138q0 -72 -28.5 -135.5t-76.5 -110.5t-112 -74.5t-135 -27.5q-72 0 -135.5 27.5t-110.5 74.5t-74.5 110.5t-27.5 135.5zM877 179q0 -43 16.5 -79.5t45 -63t66.5 -41.5t81 -15t81 15t66.5 41.5t45 63t16.5 79.5v956q0 149 -48.5 258.5t-133.5 181
t-200.5 106.5t-248.5 35q-95 0 -186.5 -24t-171 -71t-142 -117t-99.5 -162q-16 -41 -14.5 -83t18 -79t47 -66t71.5 -44t83.5 -12.5t80 20t67 48.5t44.5 72q25 79 77.5 118.5t124.5 39.5q104 0 158.5 -65t54.5 -210v-902z" />
    <glyph glyph-name="saraithai" unicode="&#xe34;" 
d="M-289 2236q33 0 60.5 -12.5t47 -34.5t30.5 -51t11 -62t-11 -62t-30.5 -50.5t-47 -34t-60.5 -12.5h-1226q-33 0 -60.5 12.5t-47 34t-30.5 50.5t-11 62t11 62t30.5 51t47 34.5t60.5 12.5h1226z" />
    <glyph glyph-name="saraiithai" unicode="&#xe35;" 
d="M-1515 1917q-33 0 -60.5 12.5t-47 34t-30.5 50.5t-11 62t11 62t30.5 51t47 34.5t60.5 12.5h958v89q0 41 16 76t43 60t63 39t77 14t77 -14t63 -39t42.5 -60t15.5 -76v-219q0 -41 -15.5 -76t-42.5 -60t-63 -39t-77 -14h-1157z" />
    <glyph glyph-name="sarauethai" unicode="&#xe36;" 
d="M-1515 1917q-33 0 -60.5 12.5t-47 34t-30.5 50.5t-11 62t11 62t30.5 51t47 34.5t60.5 12.5h774v13q0 64 24.5 121t66.5 99t98.5 66.5t121.5 24.5q64 0 121 -25t99 -68t66.5 -100.5t24.5 -121.5q0 -71 -24.5 -131t-66.5 -104t-99 -68.5t-121 -24.5h-1085zM-541 2249
q0 -22 8.5 -41.5t23.5 -34t35.5 -23t43.5 -8.5t43 8.5t35 23t24 34t9 41.5q0 23 -9 43t-24 35t-35 23.5t-43 8.5t-43.5 -8.5t-35.5 -23.5t-23.5 -35t-8.5 -43z" />
    <glyph glyph-name="saraueethai" unicode="&#xe37;" 
d="M-1515 1917q-33 0 -60.5 12.5t-47 34t-30.5 50.5t-11 62t11 62t30.5 51t47 34.5t60.5 12.5h569v124q0 34 13 62.5t35 48.5t52 31.5t64 11.5t64 -11.5t52 -31.5t35 -48.5t13 -62.5v-124h131v124q0 34 13 62.5t35 48.5t52 31.5t64 11.5t64 -11.5t52 -31.5t34.5 -48.5
t12.5 -62.5v-254q0 -41 -15.5 -76t-42.5 -60t-63 -39t-77 -14h-1157z" />
    <glyph glyph-name="sarauthai" unicode="&#xe38;" 
d="M-156 -773q0 -39 -15 -72.5t-40.5 -57.5t-60.5 -37.5t-74 -13.5t-74 13.5t-61 37.5t-41 57.5t-15 72.5v273h-78q-31 0 -56.5 12t-44 32.5t-29 47.5t-10.5 58t10.5 58t29 47t44 32t56.5 12h319q31 0 56.5 -12t44 -32t29 -47t10.5 -58v-423z" />
    <glyph glyph-name="sarauuthai" unicode="&#xe39;" 
d="M-537 -370q0 39 15 74t41 60.5t61 40.5t74 15t74 -15t60.5 -40.5t40.5 -60.5t15 -74v-93q0 -94 -25.5 -177.5t-83 -146t-150.5 -99t-228 -36.5q-122 0 -210 29.5t-147.5 82t-91 125.5t-38.5 161l-31 1q-33 0 -61 12.5t-48 34.5t-31 51.5t-11 62.5t11 62.5t31 51.5
t48 34.5t61 12.5h260q33 0 61 -12.5t48 -34.5t31 -51.5t11 -62.5v-101q0 -65 25.5 -98t81.5 -33q106 0 106 131v93z" />
    <glyph glyph-name="phinthuthai" unicode="&#xe3a;" 
d="M-623 -389q0 54 21 101.5t56.5 83t83.5 56.5t102 21q52 0 99 -21t82 -56.5t56 -83t21 -101.5q0 -52 -21 -99t-56 -82t-82 -56t-99 -21q-54 0 -102 21t-83.5 56t-56.5 82t-21 99z" />
    <glyph glyph-name="PUCR2005" unicode="&#xe3e;" 
 />
    <glyph glyph-name="bahtthai" unicode="&#xe3f;" horiz-adv-x="1946" 
d="M1048 1998q60 -1 121 -4.5t118 -12.5t108.5 -24.5t91.5 -39.5q54 -32 103.5 -76t87.5 -100t60.5 -123.5t22.5 -147.5q0 -68 -16 -127.5t-45 -110t-68.5 -91.5t-87.5 -72q67 -32 123 -79.5t96 -107t62 -128.5t22 -144q0 -76 -20 -150.5t-59.5 -142.5t-98 -126t-135 -100.5
t-170.5 -66.5t-205 -24h-111v-204q0 -18 -8 -35.5t-21 -31t-29.5 -21.5t-33.5 -8t-33.5 8t-29.5 21.5t-21 31t-8 35.5v204h-424q-53 0 -99.5 20.5t-81.5 55.5t-55 81.5t-20 99.5v1475q0 55 21 103.5t57 85t84.5 57.5t103.5 21h414v182q0 19 8 36.5t21 31t29.5 21.5t33.5 8
t33.5 -8t29.5 -21.5t21 -31t8 -36.5v-183zM1048 864v-516h74q71 0 125.5 20.5t91 56.5t55.5 85.5t19 107.5q0 66 -28.5 113t-75.5 76.5t-107 43t-123 13.5h-31zM864 348v516h-246v-516h246zM864 1184v467h-246v-467h246zM1331 1421q0 66 -21.5 109t-59 69t-89.5 37.5
t-113 13.5v-465q78 4 131.5 22.5t87.5 49.5t49 72.5t15 91.5z" />
    <glyph glyph-name="saraethai" unicode="&#xe40;" horiz-adv-x="766" 
d="M594 181q0 -44 -16.5 -80.5t-45.5 -63.5t-67.5 -42t-81.5 -15q-44 0 -82 15t-67 42t-45.5 63.5t-16.5 80.5v1317q0 43 16.5 80t45.5 64t67 42t82 15q43 0 81.5 -15t67.5 -42t45.5 -64t16.5 -80v-1317z" />
    <glyph glyph-name="saraaethai" unicode="&#xe41;" horiz-adv-x="1384" 
d="M578 181q0 -44 -16.5 -80.5t-45.5 -63.5t-67.5 -42t-81.5 -15q-44 0 -82 15t-67 42t-45.5 63.5t-16.5 80.5v1317q0 43 16.5 80t45.5 64t67 42t82 15q43 0 81.5 -15t67.5 -42t45.5 -64t16.5 -80v-1317zM1229 181q0 -44 -16.5 -80.5t-45.5 -63.5t-67.5 -42t-81.5 -15
q-44 0 -82 15t-67 42t-45.5 63.5t-16.5 80.5v1317q0 43 16.5 80t45.5 64t67 42t82 15q43 0 81.5 -15t67.5 -42t45.5 -64t16.5 -80v-1317z" />
    <glyph glyph-name="saraothai" unicode="&#xe42;" horiz-adv-x="852" 
d="M867 2494q34 0 64.5 -13t53 -35.5t35.5 -53t13 -64.5q0 -35 -13 -65t-35.5 -52t-53 -35t-64.5 -13h-347q22 -18 40 -45.5t31 -59.5t20 -66.5t7 -66.5v-1585h38q35 0 64.5 -13.5t50.5 -36.5t33 -54t12 -66t-12 -66t-33 -54t-50.5 -36.5t-64.5 -13.5h-295q-35 0 -64.5 13.5
t-50.5 36.5t-33 54t-12 66v1800q0 67 -36 122t-99 82q-44 20 -71 60.5t-27 91.5q0 35 13 65.5t35.5 53.5t53 36t65.5 13h732z" />
    <glyph glyph-name="saraaimaimuanthai" unicode="&#xe43;" horiz-adv-x="852" 
d="M-114 2190q27 95 78 165.5t118.5 117t146.5 69t160 22.5q89 0 172.5 -20.5t148 -65t103.5 -114.5t39 -169q0 -34 -8.5 -64t-22.5 -58t-32.5 -54.5t-38.5 -52.5q-23 -31 -46 -62.5t-41.5 -66.5t-30.5 -76t-14 -90v-1331h42q35 0 64.5 -13.5t50.5 -36.5t33 -54t12 -66
t-12 -66t-33 -54t-50.5 -36.5t-64.5 -13.5h-295q-35 0 -64.5 13.5t-50.5 36.5t-33 54t-12 66v1501q0 54 15 102t39 90.5t53 80t57 71.5q40 47 67 87t27 77q0 9 -3 22t-12 24.5t-25 19.5t-42 8q-58 0 -101.5 -44.5t-62.5 -114.5q-10 -35 -31.5 -61t-50.5 -42t-63 -20.5
t-69 5.5q-34 10 -60.5 31.5t-42.5 50.5t-20 63t6 69z" />
    <glyph glyph-name="saraaimaimalaithai" unicode="&#xe44;" horiz-adv-x="852" 
d="M618 340h38q35 0 64.5 -13.5t50.5 -36.5t33 -54t12 -66t-12 -66t-33 -54t-50.5 -36.5t-64.5 -13.5h-295q-35 0 -64.5 13.5t-50.5 36.5t-33 54t-12 66v1755q0 32 7 66.5t20 66.5t31 59.5t40 45.5h-347q-35 0 -65 13t-52.5 35t-35.5 52t-13 65q0 34 13 64.5t35.5 53
t52.5 35.5t65 13h732q35 0 65.5 -13t53 -36t35.5 -53.5t13 -65.5q0 -51 -27 -91.5t-71 -60.5q-63 -27 -99 -82t-36 -122v-1630z" />
    <glyph glyph-name="lakkhangyaothai" unicode="&#xe45;" horiz-adv-x="1450" 
d="M877 1081q0 145 -54.5 210t-158.5 65q-72 0 -124.5 -39.5t-77.5 -118.5q-15 -41 -44.5 -72t-67 -48.5t-80 -20t-83.5 12.5t-71.5 44t-47 66t-18 79t14.5 83q37 92 99.5 162t142 117t171 71t186.5 24q133 0 248.5 -35t200.5 -106.5t133.5 -181t48.5 -258.5v-1501
q0 -43 -16.5 -79.5t-45 -63t-66.5 -41.5t-81 -15t-81 15t-66.5 41.5t-45 63t-16.5 79.5v1447z" />
    <glyph glyph-name="maiyamokthai" unicode="&#xe46;" horiz-adv-x="1712" 
d="M1552 -366q0 -43 -17 -79.5t-45.5 -63t-67 -41.5t-81.5 -15t-81.5 15t-67 41.5t-45.5 63t-17 79.5v1426v74t-3 82.5t-11.5 74t-25.5 48.5l-148 -139q-15 -16 -36.5 -28.5t-49.5 -12.5q-31 0 -53 12.5t-37 28.5l-148 139q-18 -17 -30.5 -46.5t-20 -65.5t-10 -74t-0.5 -72
q1 -24 6.5 -51.5t16.5 -51.5t30.5 -41t49.5 -20q72 -8 114 -51.5t42 -116.5q0 -35 -13 -66t-36 -54t-53.5 -36t-65.5 -12q-54 2 -110.5 15t-111 38t-103.5 62t-87.5 87.5t-64 114.5t-32.5 142q-9 108 6 207t62.5 182t130 147t207.5 102q18 5 44 11.5t55 7t58.5 -7.5
t53.5 -32l100 -97l89 98q23 25 53.5 33.5t61.5 7t59 -8.5l48 -12q128 -35 204.5 -101t116.5 -152.5t52 -188.5t12 -208v-1394z" />
    <glyph glyph-name="maitaikhuthai" unicode="&#xe47;" 
d="M-926 2462q-55 0 -87 -15t-48 -36t-20 -44t-4 -40q0 -11 3 -29.5t11.5 -36.5t24.5 -31t42 -13q30 0 52 17t30 49q12 47 48.5 70t84.5 23q49 0 87 -22t49 -71q7 -30 25.5 -48t45.5 -18q53 0 64 55q6 28 20.5 48.5t35.5 33t47 17.5t53 2q31 -3 58.5 -15.5t47.5 -34
t29.5 -52.5t4.5 -71q-9 -71 -37.5 -120t-71 -80t-96 -44.5t-110.5 -13.5q-41 0 -77.5 10.5t-67.5 28t-56.5 40.5t-43.5 47q-20 -26 -48.5 -49t-63 -40t-72.5 -27t-78 -10q-71 0 -126 18t-96.5 48.5t-70 70.5t-46.5 82.5t-26 85.5t-8 80q0 106 39 183t103.5 127t148 74.5
t172.5 24.5h728q28 0 51.5 -10.5t40.5 -29.5t26 -44t9 -53q0 -29 -9 -53.5t-26 -43.5t-40.5 -29.5t-51.5 -10.5h-700z" />
    <glyph glyph-name="maiekthai" unicode="&#xe48;" 
d="M-156 2823q0 -41 -15.5 -74.5t-41.5 -58.5t-61.5 -38.5t-75.5 -13.5t-75.5 13.5t-62 38.5t-42 58.5t-15.5 74.5v228q0 40 15.5 74t42 59t62 38.5t75.5 13.5t75.5 -13.5t61.5 -38.5t41.5 -59t15.5 -74v-228z" />
    <glyph glyph-name="maithothai" unicode="&#xe49;" 
d="M-231 3122q14 31 38 53t53 33t61 10t63 -15q30 -14 52 -38.5t32.5 -54t10 -62.5t-15.5 -64q-33 -69 -89.5 -129t-136.5 -103.5t-184 -68.5t-231 -25h-141q-29 0 -52.5 10.5t-39.5 29t-24.5 43t-8.5 52.5v136h-48q-28 0 -51 10.5t-39.5 29t-25.5 43t-9 52.5t9 52.5
t25.5 43t39.5 29t51 10.5h243q28 0 51 -10.5t39.5 -29t25.5 -43t9 -52.5v-115q58 4 105 19t84 38t63 52.5t41 63.5z" />
    <glyph glyph-name="maitrithai" unicode="&#xe4a;" 
d="M-63 3108q8 29 26.5 51t43 35.5t53.5 18t58 -2.5q33 -8 55.5 -25.5t35 -41.5t14.5 -52t-6 -57q-20 -67 -53.5 -130.5t-77 -115.5t-95 -87.5t-106.5 -45.5h-114q-38 0 -63.5 24.5t-28.5 62.5q-2 26 -6 50t-12.5 43t-22 30t-33.5 11q-32 0 -44.5 -20.5t-15.5 -53.5
q-4 -42 -28 -64.5t-62 -22.5t-63.5 23t-26.5 64q-1 33 -16 53.5t-47 20.5q-35 0 -51.5 -31.5t-18.5 -80.5q-2 -65 -39.5 -97t-91.5 -32q-30 0 -54 10t-40.5 27.5t-25.5 41t-9 50.5q0 96 25 166.5t66 117t93.5 69t106.5 22.5q55 0 103 -27.5t85 -71.5q37 44 86 71.5t111 27.5
q37 0 72.5 -11.5t66.5 -33t54.5 -52.5t35.5 -71q18 24 34 59.5t26 77.5z" />
    <glyph glyph-name="maichattawathai" unicode="&#xe4b;" 
d="M-541 3222q0 39 15 72t40.5 56.5t60 37t73.5 13.5t73 -13.5t59.5 -37t40.5 -56.5t15 -72v-60h136q30 0 55 -11.5t43 -31t28 -46.5t10 -57t-10 -56.5t-28 -46t-43 -31t-55 -11.5h-136v-60q0 -39 -15 -72t-40.5 -56.5t-60 -37t-73.5 -13.5t-73.5 13.5t-60 37t-40 56.5
t-14.5 72v60h-136q-30 0 -55 11.5t-43 31t-28 46.5t-10 57t10 56.5t28 46t43 31t55 11.5h136v60z" />
    <glyph glyph-name="thanthakhatthai" unicode="&#xe4c;" 
d="M-221 3057q69 5 116.5 -26.5t58.5 -92.5q6 -30 -0.5 -60t-22.5 -54t-40.5 -40.5t-55.5 -19.5q-50 -5 -86.5 -20.5t-62.5 -38t-42.5 -51.5t-25.5 -62q-11 -39 -37 -65t-60 -39.5t-73.5 -14.5t-77.5 12q-41 14 -69.5 41t-42.5 61.5t-13 73.5t18 75q31 66 78 121.5t111 97
t145.5 68t181.5 34.5z" />
    <glyph glyph-name="nikhahitthai" unicode="&#xe4d;" 
d="M-504 2224q0 -24 10.5 -47t28.5 -41t41 -28.5t47 -10.5q26 0 50 10.5t42 28.5t28.5 41t10.5 47q0 26 -10.5 50t-28.5 42t-42 28.5t-50 10.5q-24 0 -47 -10.5t-41 -28.5t-28.5 -42t-10.5 -50zM-725 2224q0 74 27.5 138t74.5 111.5t110.5 75t135.5 27.5q71 0 135 -27.5
t112 -75t76.5 -111.5t28.5 -138q0 -72 -28.5 -135.5t-76.5 -110.5t-112 -74.5t-135 -27.5q-72 0 -135.5 27.5t-110.5 74.5t-74.5 110.5t-27.5 135.5z" />
    <glyph glyph-name="yamakkanthai" unicode="&#xe4e;" 
d="M-138 2367q-39 -4 -63.5 -14t-39 -26.5t-20 -40t-5.5 -54.5q0 -30 -9.5 -48.5t-24.5 -28.5t-34.5 -13.5t-38.5 -3.5q-68 0 -103 -30.5t-48 -86.5q-10 -35 -29.5 -61.5t-47.5 -43t-63.5 -21.5t-75.5 4t-67 30.5t-42 50.5t-18 63.5t5 70.5q25 110 97 187t196 107
q14 50 46 94t80.5 78.5t113 57t142.5 29.5q72 6 118.5 -28.5t56.5 -97.5q5 -31 -2 -61t-24 -54t-43 -40t-57 -19z" />
    <glyph glyph-name="fongmanthai" unicode="&#xe4f;" horiz-adv-x="2028" 
d="M131 836q0 122 31.5 234.5t89.5 210t139 178t180 137.5t212.5 88.5t236.5 31.5q121 0 232.5 -31.5t209 -88.5t177.5 -137.5t137 -178t88.5 -210t31.5 -234.5t-31.5 -234.5t-88.5 -210.5t-137 -178.5t-177.5 -137.5t-209 -88.5t-232.5 -31.5q-123 0 -236.5 31.5
t-212.5 88.5t-180 137.5t-139 178.5t-89.5 210.5t-31.5 234.5zM549 844q0 94 37.5 178t101.5 147.5t149.5 100.5t182.5 37q94 0 177.5 -37t146 -100.5t99 -147.5t36.5 -178q0 -97 -36.5 -182t-99 -148.5t-146 -100t-177.5 -36.5q-97 0 -182.5 36.5t-149.5 100t-101.5 148.5
t-37.5 182zM410 844q0 -83 21.5 -160.5t61 -145.5t95 -124t123.5 -96.5t146 -62.5t163 -22q82 0 158.5 22t143.5 62.5t122 96.5t94.5 124t61.5 145.5t22 160.5q0 124 -48 234t-130 191.5t-191.5 129t-232.5 47.5q-128 0 -239 -47.5t-193.5 -129t-130 -191.5t-47.5 -234z
M799 844q0 -46 16.5 -86.5t46 -70.5t70 -47t88.5 -17q43 0 81 17t66.5 47t45 70.5t16.5 86.5q0 43 -16.5 81.5t-45 67.5t-66.5 46.5t-81 17.5q-48 0 -88.5 -17.5t-70 -46.5t-46 -67.5t-16.5 -81.5z" />
    <glyph glyph-name="zerothai" unicode="&#xe50;" horiz-adv-x="1929" 
d="M1774 770q0 -152 -29 -271.5t-82 -209t-127 -152t-163.5 -101t-192.5 -56t-213 -17.5q-112 0 -215.5 17.5t-193.5 57t-164 102t-127 152t-82 208t-29 270.5q0 161 56 293.5t160.5 226.5t255 145.5t339.5 51.5q187 0 336.5 -51.5t254 -145.5t160.5 -226.5t56 -293.5z
M1372 717q0 114 -33 194t-88.5 130.5t-129 74t-154.5 23.5t-155.5 -23.5t-131 -74t-90 -130.5t-33.5 -194q0 -88 29.5 -162.5t83.5 -128.5t129.5 -84.5t167.5 -30.5t166.5 30.5t127.5 84.5t82 128.5t29 162.5z" />
    <glyph glyph-name="onethai" unicode="&#xe51;" horiz-adv-x="1905" 
d="M347 420q54 -41 117 -65t128 -36.5t130.5 -16t125.5 -3.5q115 0 205 31.5t151.5 92t94 148t32.5 199.5q0 84 -24.5 154.5t-74 120.5t-124 78t-174.5 28q-78 0 -144.5 -13t-114.5 -39.5t-75 -66.5t-27 -94q0 -38 14.5 -69t46.5 -53.5t82.5 -35.5t123.5 -13q43 4 75.5 -5
t54.5 -28.5t34 -47t14 -59.5q4 -61 -21.5 -98t-66.5 -57.5t-90.5 -27t-94.5 -6.5q-121 0 -227.5 34t-186 96t-125.5 150t-46 195q0 103 30.5 186.5t84 147.5t126.5 110t158.5 76t180 44t190.5 14q170 0 319.5 -40t260.5 -126.5t175 -222.5t64 -328q0 -180 -61 -328.5
t-176.5 -255t-281 -165t-374.5 -58.5q-78 0 -161.5 5t-172 23.5t-180.5 54.5t-187 98q-28 20 -45.5 48t-22.5 59.5t1.5 64t26.5 60.5t48 45.5t59.5 22.5t64 -1.5t60.5 -26.5z" />
    <glyph glyph-name="twothai" unicode="&#xe52;" horiz-adv-x="2208" 
d="M1147 827q39 0 69.5 -11.5t51.5 -32.5t32 -50t11 -63t-11.5 -64.5t-32 -54t-50 -37.5t-65.5 -14h-34q-103 0 -175 25t-119 66.5t-73 94.5t-38 109.5t-13.5 112t0.5 100.5q4 81 30.5 152.5t74.5 130t116.5 102.5t157.5 71q12 3 29.5 6t39 1t45 -10.5t46.5 -28.5l113 -97
l123 97q26 21 50.5 29.5t45.5 10t38.5 -1.5t29.5 -6q91 -24 168 -66.5t132 -100.5t86 -128t31 -149v-381q0 -115 -28.5 -208.5t-80 -167.5t-123.5 -128t-158.5 -89.5t-185 -53t-202.5 -17.5h-221q-207 0 -369.5 50t-274.5 141t-170.5 219t-58.5 283v508q0 54 -12 89t-47 51
q-32 14 -53.5 37.5t-33.5 52t-13.5 61t7.5 64.5q10 39 34 68t56 46.5t69.5 23t76.5 -3.5q74 -17 133.5 -53t101.5 -91t64.5 -129t22.5 -167v-586q0 -63 39.5 -120t113 -100.5t179 -69t237.5 -25.5q123 0 215 23t153.5 61t92.5 86.5t31 99.5v418q0 40 -14.5 70t-39.5 48
l-245 -196l-226 192q-18 -15 -29.5 -41.5t-11.5 -60.5v-61q0 -31 0.5 -56t6 -43t18 -27.5t37.5 -9.5z" />
    <glyph glyph-name="threethai" unicode="&#xe53;" horiz-adv-x="1925" 
d="M1774 175q0 -42 -16 -78t-44 -62t-65.5 -40.5t-79.5 -14.5t-79.5 14.5t-65.5 40.5t-44 62t-16 78v755q0 37 -10 71.5t-27.5 61.5t-41.5 44t-52 19l-268 -217l-248 213q-26 -8 -53 -28t-49 -58t-36 -96t-14 -141v-123q0 -87 2.5 -152.5t20.5 -109t59.5 -64t119.5 -18.5
q38 1 69 -12t53 -36t34 -54t12 -66q0 -32 -11.5 -60.5t-31 -50.5t-46.5 -37t-58 -19q-139 -20 -240 -3.5t-171 61t-113.5 112t-67.5 149t-32 173t-8 183.5v102q0 161 37.5 281.5t108.5 206t174 137.5t234 76q10 2 25.5 3t35 -2.5t42.5 -13.5t48 -31l112 -96l118 96
q25 21 48 31t42 13.5t34 2l25 -2.5q138 -20 238.5 -72t166 -127.5t97.5 -169.5t32 -197v-734z" />
    <glyph glyph-name="fourthai" unicode="&#xe54;" horiz-adv-x="1925" 
d="M1644 352q36 0 66.5 -14t52.5 -38t34.5 -56t12.5 -68t-12.5 -68t-34.5 -56t-52.5 -38t-66.5 -14h-784q-139 0 -245.5 28.5t-184.5 77.5t-130.5 113.5t-84.5 136.5t-45.5 146.5t-13.5 144.5v156q0 169 57 293t162.5 205.5t255.5 121t336 39.5h352q54 0 81.5 27t41.5 72
q13 42 39 72.5t61.5 47t78 18t88.5 -13.5q41 -14 70.5 -42.5t46 -65t19 -78.5t-11.5 -83q-22 -65 -60.5 -121.5t-98.5 -98.5t-144.5 -66t-198.5 -24h-393q-84 0 -153 -17t-118 -50t-75.5 -82t-26.5 -113v-185q0 -65 18 -120t57 -96.5t99.5 -65.5t145.5 -25q-31 41 -50.5 87
t-19.5 102q0 22 3.5 55t16 70.5t38 75t68.5 70t107 56t155 31.5q34 3 65.5 -4.5t57 -25t43.5 -45t26 -65.5q7 -35 -0.5 -66.5t-26.5 -57t-47.5 -43.5t-64.5 -26q-29 -7 -38.5 -25t-9.5 -41q0 -32 11 -59.5t31 -47t48 -30.5t62 -11h284z" />
    <glyph glyph-name="fivethai" unicode="&#xe55;" horiz-adv-x="1925" 
d="M877 1450q0 -21 8.5 -40.5t23.5 -34.5t35 -23.5t43 -8.5t43.5 8.5t35.5 23.5t23.5 34.5t8.5 40.5q0 23 -8.5 43t-23.5 35t-35.5 24t-43.5 9t-43 -9t-35 -24t-23.5 -35t-8.5 -43zM938 1106q-84 0 -153 -17t-118 -50t-75.5 -82t-26.5 -113v-185q0 -65 18 -120t57 -96.5
t99.5 -65.5t145.5 -25q-31 41 -50.5 87t-19.5 102q0 22 3.5 55t16 70.5t38 75t68.5 70t107 56t155 31.5q34 3 65.5 -4.5t57 -25t43.5 -45t26 -65.5q7 -35 -0.5 -66.5t-26.5 -57t-47.5 -43.5t-64.5 -26q-29 -7 -38.5 -25t-9.5 -41q0 -32 11 -59.5t31 -47t48 -30.5t62 -11h284
q36 0 66.5 -14t52.5 -38t34.5 -56t12.5 -68t-12.5 -68t-34.5 -56t-52.5 -38t-66.5 -14h-784q-139 0 -245.5 28.5t-184.5 77.5t-130.5 113.5t-84.5 136.5t-45.5 146.5t-13.5 144.5v156q0 129 33.5 231.5t97 179.5t154.5 129.5t206 81.5v21q0 66 27 125.5t73.5 104.5
t108.5 71.5t131 26.5q72 0 133.5 -25t107.5 -68t73 -99.5t30 -119.5q48 3 73 29.5t38 69.5q13 42 41 72.5t64.5 47t78.5 18t83 -13.5q40 -15 70 -43.5t46.5 -65t19 -78t-11.5 -82.5q-22 -65 -60.5 -121.5t-98.5 -98.5t-144.5 -66t-198.5 -24h-393z" />
    <glyph glyph-name="sixthai" unicode="&#xe56;" horiz-adv-x="1958" 
d="M827 590q-41 0 -67.5 -8t-41.5 -22.5t-20.5 -34t-5.5 -42.5q0 -32 21.5 -60t60.5 -48.5t94 -33t123 -13.5q77 -2 148.5 20t127 66t89 110t33.5 152v94q0 187 -87.5 273.5t-265.5 86.5q-121 0 -243.5 -22.5t-256.5 -85.5q-37 -19 -74.5 -24.5t-71.5 2.5t-63 28.5t-50 52.5
l-143 223q-21 33 -27.5 69.5t0.5 71.5t27.5 66.5t52.5 52.5q33 21 69.5 27.5t72 -0.5t67 -27.5t52.5 -53.5l89 -134q99 50 221.5 75.5t261.5 31.5q150 4 267 -21t204 -72.5t147 -114.5t97 -146.5t52.5 -169t14.5 -181.5v-102q-7 -94 -33 -183.5t-72 -168.5t-113 -144
t-156.5 -111t-202.5 -69.5t-250 -19.5q-154 4 -280.5 44t-217 107.5t-140.5 159.5t-50 201q0 110 37.5 190.5t106.5 133t166.5 77.5t217.5 25q34 0 64 -13t52.5 -35t35.5 -52t13 -64t-11 -64t-31.5 -52.5t-48.5 -35t-62 -12.5z" />
    <glyph glyph-name="seventhai" unicode="&#xe57;" horiz-adv-x="2322" 
d="M2154 750q0 -154 -54.5 -290.5t-158 -240t-252.5 -165.5t-338 -67q-38 -1 -73.5 14t-62.5 41.5t-43 61.5t-16 73q0 52 27 96q30 49 45 100.5t21.5 102.5t7 99.5t0.5 92.5v147q0 63 -7 112t-19.5 85.5t-30 61.5t-37.5 40l-245 -196l-238 204q-21 -15 -42 -41.5t-37 -65.5
t-26 -90.5t-10 -117.5v-131q0 -87 2.5 -152.5t20.5 -109t59.5 -64t119.5 -18.5q38 1 69 -12t53 -36t34 -54t12 -66q0 -32 -11.5 -60.5t-31 -50.5t-46.5 -37t-58 -19q-139 -20 -240 -3.5t-171 61t-113.5 112t-67.5 149t-32 173t-8 183.5v106q0 286 124.5 457t360.5 233
q13 3 34 6t45.5 1t50.5 -11t50 -30l105 -91l119 92q25 19 46.5 27.5t39 11t31.5 0.5t23 -4q138 -29 226.5 -88.5t140 -146.5t71 -199t19.5 -245v-119q-3 -65 -10 -142t-35 -157q40 17 71.5 52.5t53 83t32.5 103.5t11 113v504q0 93 22.5 167t64.5 129t101.5 91t133.5 53
q39 9 76.5 3.5t69.5 -23t55.5 -46.5t34.5 -68q9 -32 4.5 -64.5t-19 -61t-39 -52t-56.5 -37.5q-35 -16 -47 -51t-12 -89v-430z" />
    <glyph glyph-name="eightthai" unicode="&#xe58;" horiz-adv-x="1884" 
d="M1385 1566q13 42 39 72.5t61.5 47t78 18t88.5 -13.5q41 -14 70.5 -42.5t46 -65t19 -78.5t-11.5 -83q-22 -66 -60.5 -125t-98.5 -103t-144.5 -69.5t-198.5 -25.5h-397q-83 0 -142.5 -22t-97 -57.5t-55 -81t-17.5 -93.5v-291q0 -35 12 -68t31.5 -60t45 -46t51.5 -27
l249 209l263 -213q26 4 48 14.5t38.5 31t26 53t9.5 81.5q0 20 -2 41t-9 38.5t-21 28.5t-37 11q-39 0 -68 13.5t-47.5 35.5t-28 50.5t-9.5 59.5q0 37 12.5 69t36 55t56 36t73.5 13q94 0 164 -19t120 -51.5t82.5 -76.5t51 -94t25.5 -104t7 -106q0 -103 -25.5 -190t-76 -154.5
t-127 -114.5t-178.5 -69q-23 -5 -53 -11.5t-63.5 -7.5t-68 7.5t-65.5 33.5l-130 105l-117 -104q-25 -23 -55.5 -31t-60.5 -8t-57 5.5t-46 10.5q-115 29 -202 83.5t-145.5 127t-88.5 160t-30 182.5v246q0 155 47.5 278t141.5 208.5t234 131t326 45.5h357q53 0 81.5 28
t41.5 76z" />
    <glyph glyph-name="ninethai" unicode="&#xe59;" horiz-adv-x="1946" 
d="M934 958q-43 81 -91.5 126.5t-113.5 45.5q-35 0 -65 -16.5t-52 -56t-34.5 -106.5t-12.5 -169v-106q0 -87 5.5 -153.5t28 -109.5t66.5 -61.5t122 -9.5q37 4 68 -8.5t53.5 -36.5t34.5 -56t12 -67q0 -32 -11.5 -62t-31 -54t-46.5 -40.5t-58 -20.5q-139 -20 -241.5 -3.5
t-175 61t-118 112t-72 149t-36 173t-9.5 183.5v98q0 175 29 308.5t96.5 223.5t178 135.5t273.5 45.5q29 0 63.5 -0.5t69.5 -3.5t68.5 -10t60.5 -19q37 -15 67.5 -38.5t55.5 -51.5l74 82q12 12 34 26.5t56 14.5h123q52 0 77.5 25t34.5 74q9 40 32 68t56 42.5t73 15t82 -13.5
q37 -12 63.5 -36.5t41 -57t17 -71t-9.5 -78.5q-18 -62 -51 -115t-89.5 -91.5t-140 -60t-202.5 -21.5q-21 0 -29 -8l-62 -61l410 -835q18 -36 20 -74.5t-10.5 -73.5t-38 -64t-61.5 -47q-37 -17 -75.5 -18.5t-73 10.5t-63.5 37.5t-46 61.5z" />
    <glyph glyph-name="angkhankhuthai" unicode="&#xe5a;" horiz-adv-x="2437" 
d="M1241 692q-77 -40 -171.5 -63t-197.5 -23q-177 0 -310 40.5t-222.5 115t-134.5 180t-45 234.5q0 95 25 169t68 130t100.5 95t123 63t135.5 35t138 11h160q36 0 65.5 -13.5t51 -37t33.5 -54.5t12 -67t-12 -67t-33.5 -54.5t-51 -37t-65.5 -13.5h-160q-84 0 -124 -44.5
t-40 -119.5q0 -37 13 -74t44.5 -67t84 -48.5t132.5 -18.5q184 0 282.5 63.5t98.5 202.5v273q0 43 16.5 79t44.5 62t65.5 41t80.5 15t80.5 -15t65.5 -41t44.5 -62t16.5 -79v-1325q0 -43 -16.5 -79t-44.5 -62.5t-65.5 -41t-80.5 -14.5t-80.5 14.5t-65.5 41t-44.5 62.5
t-16.5 79v515zM1862 1502q0 43 16.5 79t44.5 62t65.5 41t80.5 15t80.5 -15t65.5 -41t44.5 -62t16.5 -79v-1325q0 -43 -16.5 -79t-44.5 -62.5t-65.5 -41t-80.5 -14.5t-80.5 14.5t-65.5 41t-44.5 62.5t-16.5 79v1325z" />
    <glyph glyph-name="khomutthai" unicode="&#xe5b;" horiz-adv-x="3899" 
d="M1711 1235q1 40 17 75t42.5 61t62 41t74.5 14q43 -1 81 -18.5t64 -48.5q68 -78 126 -152t99 -138q39 58 86 129t92 137q13 20 32 29.5t39.5 9.5t39.5 -9.5t32 -28.5q54 -76 101.5 -146t77.5 -121q28 40 55 78.5t52 69.5h639q41 0 77.5 -15.5t63.5 -42.5t42.5 -63.5
t15.5 -77.5t-15.5 -77.5t-42.5 -63.5t-63.5 -42.5t-77.5 -15.5h-488q-19 -27 -41.5 -60t-48.5 -74.5t-56.5 -93.5t-64.5 -117q-9 -18 -25.5 -27.5t-34 -9t-34 10.5t-25.5 31q-50 96 -95 174.5t-83 141.5q-38 -65 -82.5 -155t-93.5 -213q-14 -32 -34.5 -49t-43.5 -17.5
t-45 16.5t-37 53q-45 108 -84 188t-71 136q-25 -119 -74.5 -225t-119.5 -195.5t-157.5 -161t-188 -121.5t-211.5 -77t-228 -27q-144 0 -265.5 37t-221 102t-175.5 153t-127 190.5t-77.5 214t-26.5 224.5q0 99 21.5 202t64 199t106 180.5t147.5 147.5t189 99.5t230 36.5
q149 0 262.5 -46.5t192.5 -125t124.5 -183.5t59.5 -222q4 -39 -6 -75.5t-31.5 -66t-54 -49.5t-71.5 -26t-75.5 4t-65.5 32t-49 54t-26 71q-20 115 -77 173t-155 66q-97 -2 -168 -41.5t-117.5 -106t-69 -155t-22.5 -188.5q0 -98 36 -188.5t101.5 -159.5t156.5 -110.5
t202 -41.5q105 0 192 33.5t157 93t123 142t89.5 181t56.5 209.5t24 228z" />
    <glyph glyph-name="ZWSP" unicode="&#x200b;" 
 />
    <glyph glyph-name="endash" unicode="&#x2013;" horiz-adv-x="1733" 
d="M1557 954q36 0 68 -9t56.5 -28.5t38.5 -50t14 -74.5t-14 -74.5t-38.5 -49.5t-56.5 -28t-68 -9h-1381q-36 0 -68 9t-56.5 28t-38.5 49.5t-14 74.5t14 74.5t38.5 50t56.5 28.5t68 9h1381z" />
    <glyph glyph-name="emdash" unicode="&#x2014;" horiz-adv-x="3195" 
d="M3018 954q36 0 68 -9t56.5 -28.5t38.5 -50t14 -74.5t-14 -74.5t-38.5 -49.5t-56.5 -28t-68 -9h-2842q-36 0 -68 9t-56.5 28t-38.5 49.5t-14 74.5t14 74.5t38.5 50t56.5 28.5t68 9h2842z" />
    <glyph glyph-name="quoteleft" unicode="&#x2018;" horiz-adv-x="852" 
d="M666 1442q0 -46 -17.5 -86.5t-48 -71t-71 -48t-86.5 -17.5q-66 0 -115 26.5t-81 72.5t-47.5 107.5t-15.5 130.5q0 118 36 211.5t102 168.5q21 24 50.5 50t63.5 47.5t68.5 35.5t66.5 14q45 0 69 -24.5t24 -56.5q0 -28 -19 -48t-48.5 -39.5t-64.5 -41.5t-66.5 -54
t-56 -78.5t-31.5 -113.5q18 11 40.5 17.5t51.5 6.5q47 0 83.5 -17.5t61.5 -46.5t38 -66.5t13 -78.5z" />
    <glyph glyph-name="quoteright" unicode="&#x2019;" horiz-adv-x="852" 
d="M184 1860q0 46 17.5 86.5t48 71t71 48t86.5 17.5q66 0 115 -26.5t81 -72.5t47.5 -107.5t15.5 -130.5q0 -118 -36 -211.5t-102 -168.5q-21 -24 -50.5 -50t-63.5 -47.5t-69 -35.5t-66 -14q-45 0 -69 24.5t-24 56.5q0 28 19 48t48.5 39.5t64.5 41.5t66.5 54t55.5 78t32 114
q-18 -11 -40.5 -17.5t-51.5 -6.5q-47 0 -83.5 17.5t-61.5 46.5t-38 66.5t-13 78.5z" />
    <glyph glyph-name="quotedblleft" unicode="&#x201c;" horiz-adv-x="1438" 
d="M666 1442q0 -46 -17.5 -86.5t-48 -71t-71 -48t-86.5 -17.5q-66 0 -115 26.5t-81 72.5t-47.5 107.5t-15.5 130.5q0 118 36 211.5t102 168.5q21 24 50.5 50t63.5 47.5t68.5 35.5t66.5 14q45 0 69 -24.5t24 -56.5q0 -28 -19 -48t-48.5 -39.5t-64.5 -41.5t-66.5 -54
t-56 -78.5t-31.5 -113.5q18 11 40.5 17.5t51.5 6.5q47 0 83.5 -17.5t61.5 -46.5t38 -66.5t13 -78.5zM1257 1442q0 -46 -17.5 -86.5t-48 -71t-71 -48t-86.5 -17.5q-66 0 -115 26.5t-81 72.5t-47.5 107.5t-15.5 130.5q0 118 36 211.5t102 168.5q21 24 50.5 50t63.5 47.5
t68.5 35.5t66.5 14q45 0 69 -24.5t24 -56.5q0 -28 -19 -48t-48.5 -39.5t-64.5 -41.5t-66.5 -54t-56 -78.5t-31.5 -113.5q18 11 40.5 17.5t51.5 6.5q47 0 83.5 -17.5t61.5 -46.5t38 -66.5t13 -78.5z" />
    <glyph glyph-name="quotedblright" unicode="&#x201d;" horiz-adv-x="1438" 
d="M184 1860q0 46 17.5 86.5t48 71t71 48t86.5 17.5q66 0 115 -26.5t81 -72.5t47.5 -107.5t15.5 -130.5q0 -118 -36 -211.5t-102 -168.5q-21 -24 -50.5 -50t-63.5 -47.5t-69 -35.5t-66 -14q-45 0 -69 24.5t-24 56.5q0 28 19 48t48.5 39.5t64.5 41.5t66.5 54t55.5 78t32 114
q-18 -11 -40.5 -17.5t-51.5 -6.5q-47 0 -83.5 17.5t-61.5 46.5t-38 66.5t-13 78.5zM772 1860q0 46 17.5 86.5t48 71t71 48t86.5 17.5q66 0 115 -26.5t81 -72.5t47.5 -107.5t15.5 -130.5q0 -118 -36 -211.5t-102 -168.5q-21 -24 -50.5 -50t-63.5 -47.5t-69 -35.5t-66 -14
q-45 0 -69 24.5t-24 56.5q0 28 19 48t48.5 39.5t64.5 41.5t66.5 54t55.5 78t32 114q-18 -11 -40.5 -17.5t-51.5 -6.5q-47 0 -83.5 17.5t-61.5 46.5t-38 66.5t-13 78.5z" />
    <glyph glyph-name="bullet" unicode="&#x2022;" horiz-adv-x="1171" 
d="M74 860q0 64 18.5 125.5t51.5 115.5t79.5 99.5t103 78.5t121 51t134.5 18q106 0 199.5 -40t164 -107.5t111.5 -155.5t41 -185q0 -103 -41 -193t-111.5 -157t-164 -106t-199.5 -39q-70 0 -134.5 17.5t-121 50t-103 77.5t-79.5 100t-51.5 118t-18.5 132z" />
    <glyph glyph-name="Euro" unicode="&#x20ac;" horiz-adv-x="2182" 
d="M289 1002q0 20 0.5 40t1.5 40h-59q-28 0 -54.5 3.5t-46.5 15t-32.5 33t-12.5 58.5q0 51 22.5 74.5t56.5 32t73.5 7t73.5 -1.5h11q37 159 115.5 295.5t196.5 236t276 156.5t355 57q130 0 240.5 -24.5t200 -65t158 -93.5t115 -111t70.5 -117t26 -110q3 -97 -52 -151.5
t-150 -54.5q-50 0 -85.5 15.5t-63 41t-51 57.5t-48.5 66t-55 66t-72 57.5t-98.5 41t-134.5 15.5q-79 0 -153 -25t-137.5 -73t-113.5 -118.5t-82 -161.5h419q30 0 57.5 -2.5t48.5 -13t33.5 -31.5t12.5 -59t-12 -61t-32.5 -35t-48.5 -16t-59 -4h-463q-3 -39 -3 -80v-38.5
t2 -37.5h465q30 0 57.5 -2.5t48.5 -13.5t33.5 -32.5t12.5 -58.5q0 -38 -12 -60.5t-32.5 -34.5t-48 -16t-59.5 -4h-426q26 -83 69 -153t105.5 -120.5t145.5 -78.5t188 -28q90 0 153 27.5t110 68.5t82.5 90t69.5 91t71.5 71.5t88.5 32.5q45 3 82.5 -9t65.5 -35.5t45.5 -56.5
t22.5 -73q8 -71 -17 -141.5t-76 -134.5t-125 -118.5t-164.5 -94.5t-194.5 -62.5t-214 -22.5q-198 0 -360 47.5t-285 141.5t-204 233.5t-117 324.5h-79q-28 0 -54.5 3t-47.5 14.5t-33.5 33t-12.5 58.5q0 38 19.5 60.5t49 34t65 15t68.5 3.5q-1 19 -1.5 37.5t-0.5 38.5z" />
    <glyph glyph-name="trademark" unicode="&#x2122;" horiz-adv-x="2753" 
d="M517 1788h-149q-31 0 -53 10t-35.5 25.5t-19.5 34t-6 35.5q0 18 6 36.5t19.5 34t35.5 25.5t53 10h580q32 0 53.5 -10t34.5 -25.5t18.5 -34t5.5 -36.5q0 -17 -5.5 -35.5t-18.5 -34t-34.5 -25.5t-53.5 -10h-151v-663q0 -47 -16 -76.5t-38 -46.5t-46 -23.5t-39 -6.5
q-16 0 -40 6.5t-46.5 23.5t-38.5 46.5t-16 76.5v663zM2097 1600h-5l-171 -504q-23 -62 -57 -93t-84 -31q-95 0 -140 124l-172 504h-4v-475q0 -47 -16 -76.5t-38.5 -46.5t-46.5 -23.5t-40 -6.5t-40 6.5t-46.5 23.5t-38.5 46.5t-16 76.5v677q0 63 19 104t48.5 65t63.5 33t64 9
q92 0 152.5 -43t98.5 -137l152 -392l153 392q37 94 97.5 137t152.5 43q30 0 64 -9t63.5 -33t48.5 -65t19 -104v-677q0 -47 -16 -76.5t-38.5 -46.5t-46.5 -23.5t-40 -6.5t-39.5 6.5t-46 23.5t-38.5 46.5t-16 76.5v475z" />
    <glyph glyph-name="uni25CC" unicode="&#x25cc;" horiz-adv-x="1868" 
d="M569 455l66 159q22 -34 47 -61.5t59 -48.5zM934 1303l74 -156q-41 9 -83 7t-73 -11zM934 303l-74 152q37 -10 68.5 -9.5t75.5 13.5zM1434 803l-156 -70q12 34 12.5 70.5t-8.5 77.5zM434 807l160 78q-6 -37 -7.5 -76.5t7.5 -79.5zM598 1159l164 -57q-43 -22 -73.5 -47
t-49.5 -56zM1274 451l-152 49q34 21 59.5 46t47.5 56zM1298 1159l-69 -164q-22 34 -51 61.5t-60 49.5z" />
    <glyph glyph-name="thothannobasethai" unicode="&#xf700;" horiz-adv-x="1647" 
d="M371 618q-36 0 -65.5 13.5t-51 37t-33.5 54.5t-12 67t12 67.5t33.5 55t51 37t65.5 13.5h269q36 0 61 -13.5t43.5 -37t32 -55t25.5 -67.5l103 -311q17 46 37.5 101t40.5 112.5t38.5 114.5t32.5 107.5t22.5 91.5t8.5 67q0 132 -68.5 207.5t-209.5 75.5q-92 0 -156.5 -44.5
t-102.5 -129.5q-18 -40 -51.5 -65t-74 -35.5t-83 -6.5t-78.5 23q-39 20 -65.5 51t-38.5 67.5t-8.5 76t25.5 77.5q47 80 114 144t151 109t184.5 69t216.5 24q65 0 131 -9t131 -28q26 10 46 33t34 52q20 40 53.5 65.5t73.5 36t82 5.5t80 -27q39 -21 64.5 -54.5t36.5 -73
t6.5 -81.5t-25.5 -80q-23 -35 -54 -64t-69 -49q40 -65 63 -148t23 -188q0 -83 -23.5 -182.5t-64.5 -215t-96.5 -246.5t-120.5 -277q-20 -45 -51 -82.5t-71.5 -65t-88.5 -42.5t-100 -15q-54 0 -103 16t-90.5 45.5t-72.5 69.5t-49 88l-151 419h-63z" />
    <glyph glyph-name="yoyingnobasethai" unicode="&#xf70f;" horiz-adv-x="2666" 
d="M1597 573q0 -63 20.5 -111t55 -80.5t80 -49.5t94.5 -17q48 0 91.5 15t77 46.5t53.5 80t20 116.5v925q0 43 16.5 80t45.5 64t67 42t82 15q43 0 81.5 -15t67.5 -42t45.5 -64t16.5 -80v-949q0 -101 -25.5 -184.5t-71 -149t-108 -114t-136.5 -80t-156 -47t-167 -15.5
q-87 0 -170.5 16.5t-158 50t-137.5 83t-108.5 115t-71 147t-25.5 178.5v483q0 57 -17 113.5t-56 102t-103.5 74t-159.5 30.5q-68 1 -123 -13t-97.5 -37.5t-71.5 -52.5t-44 -57q52 -50 81 -124t29 -167v-577h40q33 0 61 -13t48.5 -35t31.5 -51.5t11 -62.5t-11 -62.5
t-31.5 -51.5t-48.5 -35t-61 -13h-305q-33 0 -61 13t-48.5 35t-31.5 51.5t-11 62.5v743q0 36 -11 74.5t-41 75.5q-28 34 -44.5 58t-21.5 46t0.5 46.5t20.5 59.5q39 89 100.5 170.5t151.5 144t211 99.5t277 37q146 0 259 -27.5t197 -76.5t141.5 -116t93 -146t51 -167
t15.5 -179v-431z" />
    <glyph glyph-name="saraulowthai" unicode="&#xf718;" 
d="M-156 -1287q0 -39 -15 -72.5t-40.5 -57.5t-60.5 -37.5t-74 -13.5t-74 13.5t-61 37.5t-41 57.5t-15 72.5v263h-78q-31 0 -56.5 12t-44 32.5t-29 47.5t-10.5 58t10.5 58t29 47t44 32t56.5 12h319q31 0 56.5 -12t44 -32t29 -47t10.5 -58v-413z" />
    <glyph glyph-name="sarauulowthai" unicode="&#xf719;" 
d="M-537 -894q0 39 15 74t41 60.5t61 40.5t74 15t74 -15t60.5 -40.5t40.5 -60.5t15 -74v-93q0 -94 -25.5 -177.5t-83 -146t-150.5 -99t-228 -36.5q-122 0 -210 29.5t-147.5 82t-91 125.5t-38.5 161l-31 1q-33 0 -61 12.5t-48 34.5t-31 51.5t-11 62.5t11 62.5t31 51.5
t48 34.5t61 12.5h260q33 0 61 -12.5t48 -34.5t31 -51.5t11 -62.5v-101q0 -65 25.5 -98t81.5 -33q106 0 106 131v93z" />
    <glyph glyph-name="phinthulowthai" unicode="&#xf71a;" 
d="M-631 -963q0 54 21 102t56.5 83.5t83 56.5t101.5 21q52 0 99 -21t82.5 -56.5t56 -83.5t20.5 -102q0 -52 -20.5 -99t-56 -82t-82.5 -56t-99 -21q-54 0 -101.5 21t-83 56t-56.5 82t-21 99z" />
    <glyph glyph-name="lochula.short" unicode="&#xf71d;" horiz-adv-x="2195" 
d="M1799 1842q24 52 73.5 84.5t111.5 32.5q43 0 80 -16t65 -44t44 -65t16 -80q0 -47 -20 -86t-52 -70t-71.5 -55.5t-79.5 -43.5q72 -82 99 -178t-5 -203l-294 -994q-19 -65 -73.5 -104.5t-126.5 -39.5q-73 0 -125 40.5t-75 104.5l-264 723l-256 -724q-19 -65 -73.5 -104.5
t-126.5 -39.5q-36 0 -69 10.5t-59 29.5t-44.5 45.5t-27.5 59.5l-345 1323q-12 43 -5 83t28.5 73t56 56.5t77.5 33.5q44 10 86.5 4t78.5 -26t61.5 -53t34.5 -76l165 -871l233 632q11 30 29 55t42 43.5t53 29t62 10.5q67 0 115 -38.5t71 -98.5l247 -658l102 459
q11 55 16.5 98.5t-0.5 76.5t-27.5 55.5t-63.5 34.5q-26 7 -48.5 22.5t-39 37t-25.5 47t-9 54.5q0 31 10.5 59t29 50t44 37t54.5 20q80 14 135.5 49t84.5 95z" />
    <glyph glyph-name="rulakkhangyao" unicode="&#xf881;" horiz-adv-x="2728" 
d="M180 905q0 36 -11 74.5t-41 75.5q-28 34 -44.5 58t-21.5 46t0.5 46.5t20.5 59.5q39 89 103.5 170.5t158.5 144t220 99.5t287 37q100 0 184.5 -14.5t156 -40t129 -59.5t103.5 -74q49 43 105.5 77.5t117 59t124.5 38t129 13.5q133 0 255 -35t214 -106.5t147 -181t55 -258.5
v-1501q0 -43 -16.5 -79.5t-45 -63t-66.5 -41.5t-81 -15t-81 15t-66.5 41.5t-45 63t-16.5 79.5v1447q0 72 -20 124t-54.5 85.5t-80.5 49.5t-98 16q-46 0 -90 -16t-79 -49t-58 -82t-27 -115v-90v-1370q0 -43 -17 -79.5t-45.5 -63t-67 -41.5t-81.5 -15t-81.5 15t-67 41.5
t-45.5 63t-17 79.5v1398q0 58 -18.5 115.5t-62 103.5t-115 74.5t-177.5 30.5q-81 1 -143.5 -14.5t-107 -40.5t-72 -55t-37.5 -58q52 -47 77 -120.5t25 -166.5v-577h43q33 0 61 -13t48.5 -35t31.5 -51.5t11 -62.5t-11 -62.5t-31.5 -51.5t-48.5 -35t-61 -13h-305q-33 0 -61 13
t-48.5 35t-31.5 51.5t-11 62.5v743z" />
    <glyph glyph-name="lulakkhangyao" unicode="&#xf882;" horiz-adv-x="2712" 
d="M250 905q0 36 -11 74.5t-41 75.5q-28 34 -44.5 58t-21.5 46t0.5 46.5t20.5 59.5q39 89 103.5 170.5t158.5 144t220 99.5t287 37q190 0 328 -45t233 -119q90 81 204 122.5t238 41.5q133 0 248.5 -35t200.5 -106.5t133.5 -181t48.5 -258.5v-1501q0 -43 -16.5 -79.5t-45 -63
t-66.5 -41.5t-81 -15t-81 15t-66.5 41.5t-45 63t-16.5 79.5v1447q0 145 -54.5 210t-158.5 65q-90 0 -145.5 -60.5t-71.5 -181.5q3 -28 5.5 -55.5t2.5 -54.5v-1370q0 -43 -17 -79.5t-45.5 -63t-67 -41.5t-81.5 -15t-81.5 15t-67 41.5t-45.5 63t-17 79.5v1398q0 75 -29 134.5
t-79 101t-118 64t-146 24.5q-81 1 -143.5 -14.5t-107.5 -40.5t-72 -55t-38 -58q26 -23 45.5 -49t32 -59.5t19 -77t6.5 -101.5v-739q0 -33 -11 -62.5t-31.5 -51.5t-48.5 -35t-61 -13h-300q-33 0 -61 13t-48.5 35t-31.5 51.5t-11 62.5t11 62.5t31.5 51.5t48.5 35t61 13h38v581
z" />
    <glyph glyph-name="yamakkanleftthai" 
d="M-777 2367q-39 -4 -63.5 -14t-39 -26.5t-20 -40t-5.5 -54.5q0 -30 -9.5 -48.5t-24.5 -28.5t-34.5 -13.5t-38.5 -3.5q-68 0 -103 -30.5t-48 -86.5q-10 -35 -29.5 -61.5t-47.5 -43t-63.5 -21.5t-75.5 4t-67 30.5t-42 50.5t-18 63.5t5 70.5q25 110 97 187t196 107
q14 50 46 94t80.5 78.5t113 57t142.5 29.5q72 6 118.5 -28.5t56.5 -97.5q5 -31 -2 -61t-24 -54t-43 -40t-57 -19z" />
    <glyph glyph-name="saraamleft" horiz-adv-x="1450" 
d="M-1196 2224q0 -24 10.5 -47t28 -41t40.5 -28.5t48 -10.5q26 0 50 10.5t42 28.5t28.5 41t10.5 47q0 26 -10.5 50t-28.5 42t-42 28.5t-50 10.5q-25 0 -48 -10.5t-40.5 -28.5t-28 -42t-10.5 -50zM-1417 2224q0 74 27 138t74.5 111.5t111 75t135.5 27.5q70 0 134 -27.5
t112.5 -75t77 -111.5t28.5 -138q0 -72 -28.5 -135.5t-77 -110.5t-112.5 -74.5t-134 -27.5q-72 0 -135.5 27.5t-111 74.5t-74.5 110.5t-27 135.5zM877 179q0 -43 16.5 -79.5t45 -63t66.5 -41.5t81 -15t81 15t66.5 41.5t45 63t16.5 79.5v956q0 149 -48.5 258.5t-133.5 181
t-200.5 106.5t-248.5 35q-95 0 -186.5 -24t-171 -71t-142 -117t-99.5 -162q-16 -41 -14.5 -83t18 -79t47 -66t71.5 -44t83.5 -12.5t80 20t67 48.5t44.5 72q25 79 77.5 118.5t124.5 39.5q104 0 158.5 -65t54.5 -210v-902z" />
    <glyph glyph-name="uni0E33.alt1" horiz-adv-x="1450" 
d="M-1196 2224q0 -24 10.5 -47t28 -41t40.5 -28.5t48 -10.5q26 0 50 10.5t42 28.5t28.5 41t10.5 47q0 26 -10.5 50t-28.5 42t-42 28.5t-50 10.5q-25 0 -48 -10.5t-40.5 -28.5t-28 -42t-10.5 -50zM-1417 2224q0 74 27 138t74.5 111.5t111 75t135.5 27.5q70 0 134 -27.5
t112.5 -75t77 -111.5t28.5 -138q0 -72 -28.5 -135.5t-77 -110.5t-112.5 -74.5t-134 -27.5q-72 0 -135.5 27.5t-111 74.5t-74.5 110.5t-27 135.5zM877 179q0 -43 16.5 -79.5t45 -63t66.5 -41.5t81 -15t81 15t66.5 41.5t45 63t16.5 79.5v956q0 149 -48.5 258.5t-133.5 181
t-200.5 106.5t-248.5 35q-95 0 -186.5 -24t-171 -71t-142 -117t-99.5 -162q-16 -41 -14.5 -83t18 -79t47 -66t71.5 -44t83.5 -12.5t80 20t67 48.5t44.5 72q25 79 77.5 118.5t124.5 39.5q104 0 158.5 -65t54.5 -210v-902z" />
    <glyph glyph-name="saraithai.alt1" 
d="M-1256 1917q-33 0 -60.5 12.5t-47 34t-30.5 50.5t-11 62t11 62t30.5 51t47 34.5t60.5 12.5h977q33 0 60.5 -12.5t47 -34.5t30.5 -51t11 -62t-11 -62t-30.5 -50.5t-47 -34t-60.5 -12.5h-977z" />
    <glyph glyph-name="saraiithai.alt1" 
d="M-1256 1917q-33 0 -60.5 12.5t-47 34t-30.5 50.5t-11 62t11 62t30.5 51t47 34.5t60.5 12.5h699v89q0 41 16 76t43 60t63 39t77 14t77 -14t63 -39t42.5 -60t15.5 -76v-219q0 -41 -15.5 -76t-42.5 -60t-63 -39t-77 -14h-898z" />
    <glyph glyph-name="sarauethai.alt1" 
d="M-1256 1917q-33 0 -60.5 12.5t-47 34t-30.5 50.5t-11 62t11 62t30.5 51t47 34.5t60.5 12.5h515v13q0 64 24.5 121t66.5 99t98.5 66.5t121.5 24.5q64 0 121 -25t99 -68t66.5 -100.5t24.5 -121.5q0 -71 -24.5 -131t-66.5 -104t-99 -68.5t-121 -24.5h-826zM-541 2249
q0 -22 8.5 -41.5t23.5 -34t35.5 -23t43.5 -8.5t43 8.5t35 23t24 34t9 41.5q0 23 -9 43t-24 35t-35 23.5t-43 8.5t-43.5 -8.5t-35.5 -23.5t-23.5 -35t-8.5 -43z" />
    <glyph glyph-name="saraueethai.alt1" 
d="M-1256 1917q-33 0 -60.5 12.5t-47 34t-30.5 50.5t-11 62t11 62t30.5 51t47 34.5t60.5 12.5h310v124q0 34 13 62.5t35 48.5t52 31.5t64 11.5t64 -11.5t52 -31.5t35 -48.5t13 -62.5v-124h131v124q0 34 13 62.5t35 48.5t52 31.5t64 11.5t64 -11.5t52 -31.5t34.5 -48.5
t12.5 -62.5v-254q0 -41 -15.5 -76t-42.5 -60t-63 -39t-77 -14h-898z" />
    <glyph glyph-name="saraithai.alt2" 
d="M-1997 1917q-33 0 -60.5 12.5t-47 34t-30.5 50.5t-11 62t11 62t30.5 51t47 34.5t60.5 12.5h1223q33 0 60.5 -12.5t47 -34.5t30.5 -51t11 -62t-11 -62t-30.5 -50.5t-47 -34t-60.5 -12.5h-1223z" />
    <glyph glyph-name="saraiithai.alt2" 
d="M-1997 1917q-33 0 -60.5 12.5t-47 34t-30.5 50.5t-11 62t11 62t30.5 51t47 34.5t60.5 12.5h945v89q0 41 16 76t43 60t63 39t77 14t77 -14t63 -39t42.5 -60t15.5 -76v-219q0 -41 -15.5 -76t-42.5 -60t-63 -39t-77 -14h-1144z" />
    <glyph glyph-name="sarauethai.alt2" 
d="M-1997 1917q-33 0 -60.5 12.5t-47 34t-30.5 50.5t-11 62t11 62t30.5 51t47 34.5t60.5 12.5h797v13q0 64 24.5 121t66.5 99t98.5 66.5t121.5 24.5q64 0 121 -25t99 -68t66.5 -100.5t24.5 -121.5q0 -71 -24.5 -131t-66.5 -104t-99 -68.5t-121 -24.5h-1108zM-999 2249
q0 -22 8.5 -41.5t23.5 -34t35 -23t43 -8.5t43.5 8.5t35.5 23t23.5 34t8.5 41.5q0 23 -8.5 43t-23.5 35t-35.5 23.5t-43.5 8.5t-43 -8.5t-35 -23.5t-23.5 -35t-8.5 -43z" />
    <glyph glyph-name="saraueethai.alt2" 
d="M-1997 1917q-33 0 -60.5 12.5t-47 34t-30.5 50.5t-11 62t11 62t30.5 51t47 34.5t60.5 12.5h555v124q0 34 13 62.5t35 48.5t52 31.5t64 11.5t64 -11.5t52 -31.5t35 -48.5t13 -62.5v-124h131v124q0 34 13 62.5t35 48.5t52 31.5t64 11.5t64 -11.5t52 -31.5t34.5 -48.5
t12.5 -62.5v-254q0 -41 -15.5 -76t-42.5 -60t-63 -39t-77 -14h-1143z" />
    <glyph glyph-name="maiekthai.alt2" 
d="M-655 2823q0 -41 -15.5 -74.5t-41.5 -58.5t-61.5 -38.5t-75.5 -13.5t-75.5 13.5t-62 38.5t-42 58.5t-15.5 74.5v231q0 40 15.5 74t42 59t62 38.5t75.5 13.5t75.5 -13.5t61.5 -38.5t41.5 -59t15.5 -74v-231z" />
    <glyph glyph-name="maithothai.alt2" 
d="M-616 3122q14 31 38 53t53 33t61 10t63 -15q30 -14 52 -38.5t32.5 -54t10 -62.5t-15.5 -64q-33 -69 -89.5 -129t-136.5 -103.5t-184 -68.5t-231 -25h-141q-29 0 -52.5 10.5t-39.5 29t-24.5 43t-8.5 52.5v136h-48q-28 0 -51 10.5t-39.5 29t-25.5 43t-9 52.5t9 52.5
t25.5 43t39.5 29t51 10.5h243q28 0 51 -10.5t39.5 -29t25.5 -43t9 -52.5v-115q58 4 105 19t84 38t63 52.5t41 63.5z" />
    <glyph glyph-name="maitrithai.alt2" 
d="M-549 3108q8 29 26.5 51t43 35.5t53.5 18t58 -2.5q33 -8 55.5 -25.5t35 -41.5t14.5 -52t-6 -57q-20 -67 -53.5 -130.5t-77 -115.5t-95 -87.5t-106.5 -45.5h-114q-38 0 -63.5 24.5t-28.5 62.5q-2 26 -6 50t-12.5 43t-22 30t-33.5 11q-32 0 -44.5 -20.5t-15.5 -53.5
q-4 -42 -28 -64.5t-62 -22.5t-63.5 23t-26.5 64q-1 33 -16 53.5t-47 20.5q-35 0 -51.5 -31.5t-18.5 -80.5q-2 -65 -39.5 -97t-91.5 -32q-30 0 -54 10t-40.5 27.5t-25.5 41t-9 50.5q0 96 25 166.5t66 117t93.5 69t106.5 22.5q55 0 103 -27.5t85 -71.5q37 44 86 71.5t111 27.5
q37 0 72.5 -11.5t66.5 -33t54.5 -52.5t35.5 -71q18 24 34 59.5t26 77.5z" />
    <glyph glyph-name="maichattawathai.alt2" 
d="M-1037 3222q0 39 15 72t40.5 56.5t60 37t73.5 13.5t73 -13.5t59.5 -37t40.5 -56.5t15 -72v-60h136q30 0 55 -11.5t43 -31t28 -46.5t10 -57t-10 -56.5t-28 -46t-43 -31t-55 -11.5h-136v-60q0 -39 -15 -72t-40.5 -56.5t-60 -37t-73.5 -13.5t-73.5 13.5t-60 37t-40 56.5
t-14.5 72v60h-136q-30 0 -55 11.5t-43 31t-28 46.5t-10 57t10 56.5t28 46t43 31t55 11.5h136v60z" />
    <glyph glyph-name="saraithai.alt3" 
d="M-1973 1917q-33 0 -60.5 12.5t-47 34t-30.5 50.5t-11 62t11 62t30.5 51t47 34.5t60.5 12.5h1694q33 0 60.5 -12.5t47 -34.5t30.5 -51t11 -62t-11 -62t-30.5 -50.5t-47 -34t-60.5 -12.5h-1694z" />
    <glyph glyph-name="saraiithai.alt3" 
d="M-1973 1917q-33 0 -60.5 12.5t-47 34t-30.5 50.5t-11 62t11 62t30.5 51t47 34.5t60.5 12.5h1416v89q0 41 16 76t43 60t63 39t77 14t77 -14t63 -39t42.5 -60t15.5 -76v-219q0 -41 -15.5 -76t-42.5 -60t-63 -39t-77 -14h-1615z" />
    <glyph glyph-name="sarauethai.alt3" 
d="M-1973 1917q-33 0 -60.5 12.5t-47 34t-30.5 50.5t-11 62t11 62t30.5 51t47 34.5t60.5 12.5h1236v13q0 64 24.5 121t66.5 99t98.5 66.5t121.5 24.5q64 0 121 -25t99 -68t66.5 -100.5t24.5 -121.5q0 -71 -24.5 -131t-66.5 -104t-99 -68.5t-121 -24.5h-1547zM-537 2249
q0 -22 9 -41.5t24 -34t35 -23t43 -8.5t43 8.5t35 23t24 34t9 41.5q0 23 -9 43t-24 35t-35 23.5t-43 8.5t-43 -8.5t-35 -23.5t-24 -35t-9 -43z" />
    <glyph glyph-name="saraueethai.alt3" 
d="M-1973 1917q-33 0 -60.5 12.5t-47 34t-30.5 50.5t-11 62t11 62t30.5 51t47 34.5t60.5 12.5h1027v124q0 34 13 62.5t35 48.5t52 31.5t64 11.5t64 -11.5t52 -31.5t35 -48.5t13 -62.5v-124h131v124q0 34 13 62.5t35 48.5t52 31.5t64 11.5t64 -11.5t52 -31.5t34.5 -48.5
t12.5 -62.5v-254q0 -41 -15.5 -76t-42.5 -60t-63 -39t-77 -14h-1615z" />
    <glyph glyph-name="maiekthai.alt4" 
d="M-156 2658q0 -41 -15.5 -74.5t-41.5 -58.5t-61.5 -38.5t-75.5 -13.5t-75.5 13.5t-62 38.5t-42 58.5t-15.5 74.5v254q0 40 15.5 74t42 59t62 38.5t75.5 13.5t75.5 -13.5t61.5 -38.5t41.5 -59t15.5 -74v-254z" />
    <glyph glyph-name="maithothai.alt4" 
d="M-230 2958q14 31 37.5 53t52.5 33t61 10t63 -15q30 -14 52 -38.5t32.5 -54t10 -62.5t-15.5 -64q-33 -69 -89.5 -129t-136.5 -103.5t-184 -68.5t-231 -25h-141q-29 0 -52.5 10.5t-39.5 29t-24.5 43t-8.5 52.5v136h-48q-28 0 -51 10.5t-39.5 29t-25.5 43t-9 52.5t9 52.5
t25.5 43t39.5 29t51 10.5h243q28 0 51 -10.5t39.5 -29t25.5 -43t9 -52.5v-115q57 1 104.5 16t84.5 38.5t63.5 54t41.5 64.5z" />
    <glyph glyph-name="maitrithai.alt4" 
d="M-187 2943q8 29 26.5 51t43 35.5t53.5 18t58 -2.5q33 -8 55.5 -25.5t35 -41.5t14.5 -52t-6 -57q-20 -67 -53.5 -130.5t-77 -115.5t-95 -87.5t-106.5 -45.5h-114q-38 0 -63.5 24.5t-28.5 62.5q-2 26 -6 50t-12.5 43t-22 30t-33.5 11q-32 0 -44.5 -20.5t-15.5 -53.5
q-4 -42 -28 -64.5t-62 -22.5t-63.5 23t-26.5 64q-1 33 -16 53.5t-47 20.5q-35 0 -51.5 -31.5t-18.5 -80.5q-2 -65 -39.5 -97t-91.5 -32q-30 0 -54 10t-40.5 27.5t-25.5 41t-9 50.5q0 96 25 166.5t66 117t93.5 69t106.5 22.5q55 0 103 -27.5t85 -71.5q37 44 86 71.5t111 27.5
q37 0 72.5 -11.5t66.5 -33t54.5 -52.5t35.5 -71q18 24 34 59.5t26 77.5z" />
    <glyph glyph-name="maichattawathai.alt4" 
d="M-541 3058q0 39 15 72t40.5 56.5t60 37t73.5 13.5t73 -13.5t59.5 -37t40.5 -56.5t15 -72v-60h136q30 0 55 -11.5t43 -31t28 -46.5t10 -57t-10 -56.5t-28 -46t-43 -31t-55 -11.5h-136v-60q0 -39 -15 -72t-40.5 -56.5t-60 -37t-73.5 -13.5t-73.5 13.5t-60 37t-40 56.5
t-14.5 72v60h-136q-30 0 -55 11.5t-43 31t-28 46.5t-10 57t10 56.5t28 46t43 31t55 11.5h136v60z" />
    <glyph glyph-name="maiekthai.alt5" 
d="M-696 2658q0 -41 -15.5 -74.5t-41.5 -58.5t-61.5 -38.5t-75.5 -13.5t-75.5 13.5t-62 38.5t-42 58.5t-15.5 74.5v254q0 40 15.5 74t42 59t62 38.5t75.5 13.5t75.5 -13.5t61.5 -38.5t41.5 -59t15.5 -74v-254z" />
    <glyph glyph-name="maithothai.alt5" 
d="M-656 2958q14 31 37.5 53t52.5 33t61 10t63 -15q30 -14 52 -38.5t32.5 -54t10 -62.5t-15.5 -64q-33 -69 -89.5 -129t-136.5 -103.5t-184 -68.5t-231 -25h-141q-29 0 -52.5 10.5t-39.5 29t-24.5 43t-8.5 52.5v136h-48q-28 0 -51 10.5t-39.5 29t-25.5 43t-9 52.5t9 52.5
t25.5 43t39.5 29t51 10.5h243q28 0 51 -10.5t39.5 -29t25.5 -43t9 -52.5v-115q57 1 104.5 16t84.5 38.5t63.5 54t41.5 64.5z" />
    <glyph glyph-name="maitrithai.alt5" 
d="M-594 2943q8 29 26.5 51t43 35.5t53.5 18t58 -2.5q33 -8 55.5 -25.5t35 -41.5t14.5 -52t-6 -57q-20 -67 -53.5 -130.5t-77 -115.5t-95 -87.5t-106.5 -45.5h-114q-38 0 -63.5 24.5t-28.5 62.5q-2 26 -6 50t-12.5 43t-22 30t-33.5 11q-32 0 -44.5 -20.5t-15.5 -53.5
q-4 -42 -28 -64.5t-62 -22.5t-63.5 23t-26.5 64q-1 33 -16 53.5t-47 20.5q-35 0 -51.5 -31.5t-18.5 -80.5q-2 -65 -39.5 -97t-91.5 -32q-30 0 -54 10t-40.5 27.5t-25.5 41t-9 50.5q0 96 25 166.5t66 117t93.5 69t106.5 22.5q55 0 103 -27.5t85 -71.5q37 44 86 71.5t111 27.5
q37 0 72.5 -11.5t66.5 -33t54.5 -52.5t35.5 -71q18 24 34 59.5t26 77.5z" />
    <glyph glyph-name="maichattawathai.alt5" 
d="M-1077 3058q0 39 15 72t40.5 56.5t60 37t73.5 13.5t73 -13.5t59.5 -37t40.5 -56.5t15 -72v-60h136q30 0 55 -11.5t43 -31t28 -46.5t10 -57t-10 -56.5t-28 -46t-43 -31t-55 -11.5h-136v-60q0 -39 -15 -72t-40.5 -56.5t-60 -37t-73.5 -13.5t-73.5 13.5t-60 37t-40 56.5
t-14.5 72v60h-136q-30 0 -55 11.5t-43 31t-28 46.5t-10 57t10 56.5t28 46t43 31t55 11.5h136v60z" />
    <glyph glyph-name="sarauthai.alt6" 
d="M-450 -773q0 -39 -15 -72.5t-40.5 -57.5t-60.5 -37.5t-74 -13.5t-74 13.5t-61 37.5t-41 57.5t-15 72.5v273h-78q-31 0 -56.5 12t-44 32.5t-29 47.5t-10.5 58t10.5 58t29 47t44 32t56.5 12h319q31 0 56.5 -12t44 -32t29 -47t10.5 -58v-423z" />
    <glyph glyph-name="sarauuthai.alt6" 
d="M-602 -371q0 39 15 74t41 60.5t61 40.5t74 15t74 -15t60.5 -40.5t40.5 -60.5t15 -74v-93q0 -94 -25.5 -177.5t-83 -146t-150.5 -99t-228 -36.5q-122 0 -210 29.5t-147.5 82t-91 125.5t-38.5 161l-31 1q-33 0 -61 12.5t-48 34.5t-31 51.5t-11 62.5t11 62.5t31 51.5
t48 34.5t61 12.5h260q33 0 61 -12.5t48 -34.5t31 -51.5t11 -62.5v-101q0 -65 25.5 -98t81.5 -33q106 0 106 131v93z" />
    <glyph glyph-name="phinthuthai.alt6" 
d="M-934 -389q0 54 21 101.5t56.5 83t83 56.5t101.5 21q52 0 99 -21t82.5 -56.5t56 -83t20.5 -101.5q0 -52 -20.5 -99t-56 -82t-82.5 -56t-99 -21q-54 0 -101.5 21t-83 56t-56.5 82t-21 99z" />
    <glyph glyph-name="sarauthai.alt7" 
d="M-400 -773q0 -39 -15 -72.5t-40.5 -57.5t-60.5 -37.5t-74 -13.5t-74 13.5t-61 37.5t-41 57.5t-15 72.5v273h-78q-31 0 -56.5 12t-44 32.5t-29 47.5t-10.5 58t10.5 58t29 47t44 32t56.5 12h319q31 0 56.5 -12t44 -32t29 -47t10.5 -58v-423z" />
    <glyph glyph-name="sarauuthai.alt7" 
d="M-856 -371q0 39 15 74t41 60.5t61 40.5t74 15t74 -15t60.5 -40.5t40.5 -60.5t15 -74v-93q0 -94 -25.5 -177.5t-83 -146t-150.5 -99t-228 -36.5q-122 0 -210 29.5t-147.5 82t-91 125.5t-38.5 161l-31 1q-33 0 -61 12.5t-48 34.5t-31 51.5t-11 62.5t11 62.5t31 51.5
t48 34.5t61 12.5h260q33 0 61 -12.5t48 -34.5t31 -51.5t11 -62.5v-101q0 -65 25.5 -98t81.5 -33q106 0 106 131v93z" />
    <glyph glyph-name="phinthuthai.alt7" 
d="M-934 -389q0 54 21 101.5t56.5 83t83 56.5t101.5 21q52 0 99 -21t82.5 -56.5t56 -83t20.5 -101.5q0 -52 -20.5 -99t-56 -82t-82.5 -56t-99 -21q-54 0 -101.5 21t-83 56t-56.5 82t-21 99z" />
    <glyph glyph-name="maihanakatthai.alt8" 
d="M-1281 2236q0 38 14.5 70t39.5 55t59 36t72 13t71.5 -13t58.5 -36t39.5 -55t14.5 -70h1165q33 0 60.5 -12.5t47.5 -34.5t31 -51t11 -62t-11 -62t-31 -50.5t-47.5 -34t-60.5 -12.5h-1349q-38 0 -72 13t-59 36t-39.5 55t-14.5 70v145z" />
    <glyph glyph-name="maiekthai.alt8" 
d="M-696 2823q0 -41 -15.5 -74.5t-41.5 -58.5t-61.5 -38.5t-75.5 -13.5t-75.5 13.5t-62 38.5t-42 58.5t-15.5 74.5v232q0 40 15.5 74t42 59t62 38.5t75.5 13.5t75.5 -13.5t61.5 -38.5t41.5 -59t15.5 -74v-232z" />
    <glyph glyph-name="maithothai.alt8" 
d="M-651 3122q14 31 37 53t50.5 33t59 10t62.5 -15q30 -14 52 -38.5t32.5 -54t10 -62.5t-15.5 -64q-33 -69 -89.5 -129t-136.5 -103.5t-184 -68.5t-231 -25h-141q-29 0 -52.5 10.5t-39.5 29t-24.5 43t-8.5 52.5v136h-48q-28 0 -51 10.5t-39.5 29t-25.5 43t-9 52.5t9 52.5
t25.5 43t39.5 29t51 10.5h243q28 0 51 -10.5t39.5 -29t25.5 -43t9 -52.5v-115q57 1 105 16t86.5 38.5t65.5 54t42 64.5z" />
    <glyph glyph-name="maitrithai.alt8" 
d="M-593 3108q8 29 26.5 51t43 35.5t53.5 18t58 -2.5q33 -8 55.5 -25.5t35 -41.5t14.5 -52t-6 -57q-20 -67 -53.5 -130.5t-77 -115.5t-95 -87.5t-106.5 -45.5h-114q-38 0 -63.5 24.5t-28.5 62.5q-2 26 -6 50t-12.5 43t-22 30t-33.5 11q-32 0 -44.5 -20.5t-15.5 -53.5
q-4 -42 -28 -64.5t-62 -22.5t-63.5 23t-26.5 64q-1 33 -16 53.5t-47 20.5q-35 0 -51.5 -31.5t-18.5 -80.5q-2 -65 -39.5 -97t-91.5 -32q-30 0 -54 10t-40.5 27.5t-25.5 41t-9 50.5q0 96 25 166.5t66 117t93.5 69t106.5 22.5q55 0 103 -27.5t85 -71.5q37 44 86 71.5t111 27.5
q37 0 72.5 -11.5t66.5 -33t54.5 -52.5t35.5 -71q18 24 34 59.5t26 77.5z" />
    <glyph glyph-name="maichattawathai.alt8" 
d="M-1077 3222q0 39 15 72t40.5 56.5t60 37t73.5 13.5t73 -13.5t59.5 -37t40.5 -56.5t15 -72v-60h136q30 0 55 -11.5t43 -31t28 -46.5t10 -57t-10 -56.5t-28 -46t-43 -31t-55 -11.5h-136v-60q0 -39 -15 -72t-40.5 -56.5t-60 -37t-73.5 -13.5t-73.5 13.5t-60 37t-40 56.5
t-14.5 72v60h-136q-30 0 -55 11.5t-43 31t-28 46.5t-10 57t10 56.5t28 46t43 31t55 11.5h136v60z" />
    <glyph glyph-name="maihanakatthai.alt9" 
d="M-1281 2236q0 38 14.5 70t39.5 55t59 36t72 13t71.5 -13t58.5 -36t39.5 -55t14.5 -70h950q33 0 60.5 -12.5t47.5 -34.5t31 -51t11 -62t-11 -62t-31 -50.5t-47.5 -34t-60.5 -12.5h-1134q-38 0 -72 13t-59 36t-39.5 55t-14.5 70v145z" />
    <glyph glyph-name="maithothai.alt9" 
d="M-416 3092q14 31 38 53t53 33t61 10t63 -15q30 -14 52 -38.5t32.5 -54t10 -62.5t-15.5 -64q-33 -69 -89.5 -129t-136.5 -103.5t-184 -68.5t-231 -25h-141q-29 0 -52.5 10.5t-39.5 29t-24.5 43t-8.5 52.5v136h-48q-28 0 -51 10.5t-39.5 29t-25.5 43t-9 52.5t9 52.5
t25.5 43t39.5 29t51 10.5h243q28 0 51 -10.5t39.5 -29t25.5 -43t9 -52.5v-115q58 4 105 19t84 38t63 52.5t41 63.5z" />
    <glyph glyph-name="maitrithai.alt9" 
d="M-253 3078q8 29 26.5 51t43 35.5t53.5 18t58 -2.5q33 -8 55.5 -25.5t35 -41.5t14.5 -52t-6 -57q-20 -67 -53.5 -130.5t-77 -115.5t-95 -87.5t-106.5 -45.5h-114q-38 0 -63.5 24.5t-28.5 62.5q-2 26 -6 50t-12.5 43t-22 30t-33.5 11q-32 0 -44.5 -20.5t-15.5 -53.5
q-4 -42 -28 -64.5t-62 -22.5t-63.5 23t-26.5 64q-1 33 -16 53.5t-47 20.5q-35 0 -51.5 -31.5t-18.5 -80.5q-2 -65 -39.5 -97t-91.5 -32q-30 0 -54 10t-40.5 27.5t-25.5 41t-9 50.5q0 96 25 166.5t66 117t93.5 69t106.5 22.5q55 0 103 -27.5t85 -71.5q37 44 86 71.5t111 27.5
q37 0 72.5 -11.5t66.5 -33t54.5 -52.5t35.5 -71q18 24 34 59.5t26 77.5z" />
    <glyph glyph-name="saraithai.alt10" 
d="M-289 2236q33 0 60.5 -12.5t47 -34.5t30.5 -51t11 -62t-11 -62t-30.5 -50.5t-47 -34t-60.5 -12.5h-1106q-33 0 -60.5 12.5t-47 34t-30.5 50.5t-11 62t11 62t30.5 51t47 34.5t60.5 12.5h1106z" />
    <glyph glyph-name="saraiithai.alt10" 
d="M-1395 1917q-33 0 -60.5 12.5t-47 34t-30.5 50.5t-11 62t11 62t30.5 51t47 34.5t60.5 12.5h838v89q0 41 16 76t43 60t63 39t77 14t77 -14t63 -39t42.5 -60t15.5 -76v-219q0 -41 -15.5 -76t-42.5 -60t-63 -39t-77 -14h-1037z" />
    <glyph glyph-name="sarauethai.alt10" 
d="M-1395 1917q-33 0 -60.5 12.5t-47 34t-30.5 50.5t-11 62t11 62t30.5 51t47 34.5t60.5 12.5h654v13q0 64 24.5 121t66.5 99t98.5 66.5t121.5 24.5q64 0 121 -25t99 -68t66.5 -100.5t24.5 -121.5q0 -71 -24.5 -131t-66.5 -104t-99 -68.5t-121 -24.5h-965zM-541 2249
q0 -22 8.5 -41.5t23.5 -34t35.5 -23t43.5 -8.5t43 8.5t35 23t24 34t9 41.5q0 23 -9 43t-24 35t-35 23.5t-43 8.5t-43.5 -8.5t-35.5 -23.5t-23.5 -35t-8.5 -43z" />
    <glyph glyph-name="saraueethai.alt10" 
d="M-1395 1917q-33 0 -60.5 12.5t-47 34t-30.5 50.5t-11 62t11 62t30.5 51t47 34.5t60.5 12.5h449v124q0 34 13 62.5t35 48.5t52 31.5t64 11.5t64 -11.5t52 -31.5t35 -48.5t13 -62.5v-124h131v124q0 34 13 62.5t35 48.5t52 31.5t64 11.5t64 -11.5t52 -31.5t34.5 -48.5
t12.5 -62.5v-254q0 -41 -15.5 -76t-42.5 -60t-63 -39t-77 -14h-1037z" />
    <glyph glyph-name="maiekupperleftthai.alt11" 
d="M-835 2823q0 -41 -15.5 -74.5t-41.5 -58.5t-61.5 -38.5t-75.5 -13.5t-75.5 13.5t-62 38.5t-42 58.5t-15.5 74.5v228q0 40 15.5 74t42 59t62 38.5t75.5 13.5t75.5 -13.5t61.5 -38.5t41.5 -59t15.5 -74v-228z" />
    <glyph glyph-name="maichattawaupperleftthai.alt11" 
d="M-1215 3222q0 39 15 72t40.5 56.5t60 37t73.5 13.5t73 -13.5t59.5 -37t40.5 -56.5t15 -72v-60h136q30 0 55 -11.5t43 -31t28 -46.5t10 -57t-10 -56.5t-28 -46t-43 -31t-55 -11.5h-136v-60q0 -39 -15 -72t-40.5 -56.5t-60 -37t-73.5 -13.5t-73.5 13.5t-60 37t-40 56.5
t-14.5 72v60h-136q-30 0 -55 11.5t-43 31t-28 46.5t-10 57t10 56.5t28 46t43 31t55 11.5h136v60z" />
    </font>
</defs>
</svg>
